Code:
General
Format                      : Matroska
Format version              : Version 4 / Version 2
File size                   : 2.74 GiB
Duration                    : 1 h 47 min
Overall bit rate            : 3 655 kb/s
Encoded date                : UTC 2018-07-08 11:06:31
Writing application         : mkvmerge v7.1.0 ('Good Love') 32bit built on Jul 27 2014 12:59:18
Writing library             : libebml v1.3.0 + libmatroska v1.4.1

Video
ID                          : 1
Format                      : AVC
Format/Info                 : Advanced Video Codec
Format profile              : High@L4.1
Format settings, CABAC      : Yes
Format settings, RefFrames  : 4 frames
Codec ID                    : V_MPEG4/ISO/AVC
Duration                    : 1 h 47 min
Bit rate                    : 2 150 kb/s
Width                       : 1 920 pixels
Height                      : 800 pixels
Display aspect ratio        : 2.40:1
Frame rate mode             : Constant
Frame rate                  : 23.976 FPS
Color space                 : YUV
Chroma subsampling          : 4:2:0
Bit depth                   : 8 bits
Scan type                   : Progressive
Bits/(Pixel*Frame)          : 0.058
Stream size                 : 1.61 GiB (59%)
Writing library             : x264 core 155
Encoding settings           : cabac=1 / ref=4 / deblock=1:-1:-1 / analyse=0x3:0x133 / me=umh / subme=9 / psy=1 / psy_rd=1.00:0.15 / mixed_ref=1 / me_range=24 / chroma_me=1 / trellis=2 / 8x8dct=1 / cqm=0 / deadzone=21,11 / fast_pskip=0 / chroma_qp_offset=-3 / threads=18 / lookahead_threads=1 / sliced_threads=0 / nr=0 / decimate=1 / interlaced=0 / bluray_compat=0 / constrained_intra=0 / bframes=3 / b_pyramid=2 / b_adapt=2 / b_bias=0 / direct=3 / weightb=1 / open_gop=0 / weightp=2 / keyint=250 / keyint_min=23 / scenecut=40 / intra_refresh=0 / rc_lookahead=60 / rc=2pass / mbtree=1 / bitrate=2150 / ratetol=1.0 / qcomp=0.60 / qpmin=0 / qpmax=69 / qpstep=4 / cplxblur=20.0 / qblur=0.5 / vbv_maxrate=31250 / vbv_bufsize=31250 / nal_hrd=none / filler=0 / ip_ratio=1.40 / aq=1:1.00
Language                    : English
Default                     : Yes
Forced                      : No

Audio #1
ID                          : 2
Format                      : AC-3
Format/Info                 : Audio Coding 3
Format settings, Endianness : Big
Codec ID                    : A_AC3
Duration                    : 1 h 47 min
Bit rate mode               : Constant
Bit rate                    : 448 kb/s
Channel(s)                  : 6 channels
Channel positions           : Front: L C R, Side: L R, LFE
Sampling rate               : 48.0 kHz
Frame rate                  : 31.250 FPS (1536 SPF)
Bit depth                   : 16 bits
Compression mode            : Lossy
Delay relative to video     : -43 ms
Stream size                 : 344 MiB (12%)
Language                    : Telugu
Service kind                : Complete Main
Default                     : Yes
Forced                      : No

Audio #2
ID                          : 3
Format                      : AC-3
Format/Info                 : Audio Coding 3
Format settings, Endianness : Big
Codec ID                    : A_AC3
Duration                    : 1 h 47 min
Bit rate mode               : Constant
Bit rate                    : 448 kb/s
Channel(s)                  : 6 channels
Channel positions           : Front: L C R, Side: L R, LFE
Sampling rate               : 48.0 kHz
Frame rate                  : 31.250 FPS (1536 SPF)
Bit depth                   : 16 bits
Compression mode            : Lossy
Delay relative to video     : -43 ms
Stream size                 : 344 MiB (12%)
Language                    : Tamil
Service kind                : Complete Main
Default                     : No
Forced                      : No

Audio #3
ID                          : 4
Format                      : AC-3
Format/Info                 : Audio Coding 3
Format settings, Endianness : Big
Codec ID                    : A_AC3
Duration                    : 1 h 47 min
Bit rate mode               : Constant
Bit rate                    : 448 kb/s
Channel(s)                  : 6 channels
Channel positions           : Front: L C R, Side: L R, LFE
Sampling rate               : 48.0 kHz
Frame rate                  : 31.250 FPS (1536 SPF)
Bit depth                   : 16 bits
Compression mode            : Lossy
Delay relative to video     : -43 ms
Stream size                 : 344 MiB (12%)
Language                    : Hindi
Service kind                : Complete Main
Default                     : No
Forced                      : No

Audio #4
ID                          : 5
Format                      : AAC
Format/Info                 : Advanced Audio Codec
Format profile              : LC
Codec ID                    : A_AAC
Duration                    : 1 h 47 min
Bit rate                    : 159 kb/s
Channel(s)                  : 2 channels
Channel positions           : Front: L R
Sampling rate               : 48.0 kHz
Frame rate                  : 46.875 FPS (1024 SPF)
Compression mode            : Lossy
Delay relative to video     : -43 ms
Stream size                 : 122 MiB (4%)
Language                    : English
Default                     : No
Forced                      : No

Text
ID                          : 6
Format                      : UTF-8
Codec ID                    : S_TEXT/UTF8
Codec ID/Info               : UTF-8 Plain Text
Duration                    : 1 h 37 min
Bit rate                    : 55 b/s
Count of elements           : 1280
Stream size                 : 39.5 KiB (0%)
Language                    : English
Default                     : Yes
Forced                      : No



SINGLE DIRECT FAST LINKS
Code:
http://www.heroupload.us/b0ed01f4dff52cd8/Rampage.2018.BluRay.1080p.Original.DD5.1.Hindi+Telugu+Tamil+English.mkv
Code:
http://filefloater.com/2zFz/Rampage.2018.BluRay.1080p.Original.DD5.1.Hindi+Telugu+Tamil+English.mkv
700MB LINKS
Code:
http://www.heroupload.us/f20ac353ad8524e5/Rampage.2018.BluRay.1080p.Original.DD5.1.Hindi+Telugu+Tamil+English.part1.rar
http://www.heroupload.us/cfbb801ce16f89c3/Rampage.2018.BluRay.1080p.Original.DD5.1.Hindi+Telugu+Tamil+English.part2.rar
http://www.heroupload.us/a6c692a6ba68a10f/Rampage.2018.BluRay.1080p.Original.DD5.1.Hindi+Telugu+Tamil+English.part3.rar
http://www.heroupload.us/efb2f2a076411f22/Rampage.2018.BluRay.1080p.Original.DD5.1.Hindi+Telugu+Tamil+English.part4.rar
http://www.heroupload.us/5e743245851f05a8/Rampage.2018.BluRay.1080p.Original.DD5.1.Hindi+Telugu+Tamil+English.part5.rar
Code:
http://filefloater.com/2zFA/Rampage.2018.BluRay.1080p.Original.DD5.1.Hindi+Telugu+Tamil+English.part1.rar
http://filefloater.com/2zFB/Rampage.2018.BluRay.1080p.Original.DD5.1.Hindi+Telugu+Tamil+English.part2.rar
http://filefloater.com/2zFC/Rampage.2018.BluRay.1080p.Original.DD5.1.Hindi+Telugu+Tamil+English.part3.rar
http://filefloater.com/2zFD/Rampage.2018.BluRay.1080p.Original.DD5.1.Hindi+Telugu+Tamil+English.part4.rar
http://filefloater.com/2zFE/Rampage.2018.BluRay.1080p.Original.DD5.1.Hindi+Telugu+Tamil+English.part5.rar
Buy Premium From My Links & Support Me