Code:
General
Format                                   : Matroska
Format version                           : Version 4 / Version 2
File size                                : 2.47 GiB
Duration                                 : 2 h 43 min
Overall bit rate                         : 2 170 kb/s
Encoded date                             : UTC 2017-02-18 23:21:40
Writing application                      : mkvmerge v9.8.0 ('Kuglblids') 64bit
Writing library                          : libebml v1.3.4 + libmatroska v1.4.5 / Lavf57.25.100

Video
ID                                       : 1
Format                                   : AVC
Format/Info                              : Advanced Video Codec
Format profile                           : Main@L3.1
Format settings, CABAC                   : Yes
Format settings, ReFrames                : 4 frames
Codec ID                                 : V_MPEG4/ISO/AVC
Duration                                 : 2 h 43 min
Bit rate                                 : 2 104 kb/s
Width                                    : 1 280 pixels
Height                                   : 720 pixels
Display aspect ratio                     : 16:9
Frame rate mode                          : Variable
Frame rate                               : 24.938 FPS
Color space                              : YUV
Chroma subsampling                       : 4:2:0
Bit depth                                : 8 bits
Scan type                                : Progressive
Bits/(Pixel*Frame)                       : 0.092
Stream size                              : 2.40 GiB (97%)
Default                                  : Yes
Forced                                   : No

Audio
ID                                       : 2
Format                                   : AAC
Format/Info                              : Advanced Audio Codec
Format profile                           : LC
Codec ID                                 : A_AAC
Duration                                 : 2 h 43 min
Bit rate                                 : 63.8 kb/s
Channel(s)                               : 2 channels
Channel positions                        : Front: L R
Sampling rate                            : 44.1 kHz
Frame rate                               : 43.066 FPS (1024 spf)
Compression mode                         : Lossy
Delay relative to video                  : -120 ms
Stream size                              : 74.5 MiB (3%)
Default                                  : Yes
Forced                                   : No










SINGLE DIRECT FAST LINKS

Code:
http://www.heroupload.com/245834b0fb362000/62nd.Jio.Filmfare.Awards.-.Red.Carpet.-2017.720p.WEBRip.D3SiND-Exclusive.mkv
http://www.heroupload.com/a0f9423d6f03c3ee/62nd.Jio.Filmfare.Awards.2017.720p.WEBRip.D3SiND-Exclusive.mkv