Code:
Format                      : Matroska
Format version              : Version 4 / Version 2
File size                  : 6.82 GiB
Duration                    : 2 h 40 min
Overall bit rate            : 6 065 kb/s
Encoded date                : UTC 2016-05-15 13:48:09
Writing application        : mkvmerge v8.3.0 ('Over the Horizon') 64bit
Writing library            : libebml v1.3.1 + libmatroska v1.4.2

Video
ID                          : 1
Format                      : AVC
Format/Info                : Advanced Video Codec
Format profile              : High@L4
Format settings            : CABAC / 4 Ref Frames
Format settings, CABAC      : Yes
Format settings, ReFrames  : 4 frames
Codec ID                    : V_MPEG4/ISO/AVC
Duration                    : 2 h 40 min
Bit rate                    : 5 873 kb/s
Width                      : 1 920 pixels
Height                      : 1 080 pixels
Display aspect ratio        : 16:9
Frame rate mode            : Constant
Frame rate                  : 25.000 FPS
Color space                : YUV
Chroma subsampling          : 4:2:0
Bit depth                  : 8 bits
Scan type                  : Progressive
Bits/(Pixel*Frame)          : 0.113
Stream size                : 6.60 GiB (97%)
Writing library            : x264 core 133 r2 a3ac64b
Encoding settings          : cabac=1 / ref=3 / deblock=1:0:0 / analyse=0x3:0x113 / me=hex / subme=7 / psy=1 / psy_rd=1.00:0.00 / mixed_ref=1 / me_range=16 / chroma_me=1 / trellis=1 / 8x8dct=1 / cqm=0 / deadzone=21,11 / fast_pskip=1 / chroma_qp_offset=-2 / threads=12 / lookahead_threads=2 / sliced_threads=0 / nr=0 / decimate=1 / interlaced=0 / bluray_compat=0 / constrained_intra=0 / bframes=3 / b_pyramid=2 / b_adapt=1 / b_bias=0 / direct=1 / weightb=1 / open_gop=0 / weightp=2 / keyint=30 / keyint_min=3 / scenecut=40 / intra_refresh=0 / rc_lookahead=30 / rc=abr / mbtree=1 / bitrate=5873 / ratetol=1.0 / qcomp=0.60 / qpmin=0 / qpmax=69 / qpstep=4 / ip_ratio=1.40 / aq=1:1.00
Default                    : Yes
Forced                      : No

Audio
ID                          : 2
Format                      : AAC
Format/Info                : Advanced Audio Codec
Format profile              : LC
Codec ID                    : A_AAC-2
Duration                    : 2 h 40 min
Bit rate                    : 192 kb/s
Channel(s)                  : 2 channels
Channel positions          : Front: L R
Sampling rate              : 48.0 kHz
Frame rate                  : 46.875 FPS (1024 SPF)
Compression mode            : Lossy
Delay relative to video    : -43 ms
Stream size                : 223 MiB (3%)
Default                    : Yes
Forced                      : No

Subtitles     : English



SINGLE DIRECT FAST LINKS

Code:
http://www.heroupload.us/3f5757b0983cd25e/Apne.2007.1080p.WebHD.AVC.AAC-DTOne.mkv
1GB LINKS
Code:
http://www.heroupload.us/aea09520a477fdf1/Apne.2007.1080p.WebHD.AVC.AAC-DTOne.part1.rar
http://www.heroupload.us/afb0e28dadb9c1c5/Apne.2007.1080p.WebHD.AVC.AAC-DTOne.part2.rar
http://www.heroupload.us/6eb48932eaee8f96/Apne.2007.1080p.WebHD.AVC.AAC-DTOne.part3.rar
http://www.heroupload.us/c5ddb0bbb0c76ad1/Apne.2007.1080p.WebHD.AVC.AAC-DTOne.part4.rar
http://www.heroupload.us/26e89c9e43fcd231/Apne.2007.1080p.WebHD.AVC.AAC-DTOne.part5.rar
http://www.heroupload.us/c3b64750ebd650ac/Apne.2007.1080p.WebHD.AVC.AAC-DTOne.part6.rar
http://www.heroupload.us/2c9c70386cd69479/Apne.2007.1080p.WebHD.AVC.AAC-DTOne.part7.rar
http://www.heroupload.us/0313367d0bc75fb8/Apne.2007.1080p.WebHD.AVC.AAC-DTOne.part8.rar
Code:
http://filefloater.com/SEs/Andaz.1994.1080p.WebHD.AVC.AAC.ESub-DTOne.part1.rar
http://filefloater.com/SEv/Andaz.1994.1080p.WebHD.AVC.AAC.ESub-DTOne.part2.rar
http://filefloater.com/SEx/Andaz.1994.1080p.WebHD.AVC.AAC.ESub-DTOne.part3.rar
http://filefloater.com/SEz/Andaz.1994.1080p.WebHD.AVC.AAC.ESub-DTOne.part4.rar
http://filefloater.com/1iFx/Andaz.1994.1080p.WebHD.AVC.AAC.ESub-DTOne.part5.rar
http://filefloater.com/1iFA/Andaz.1994.1080p.WebHD.AVC.AAC.ESub-DTOne.part6.rar
http://filefloater.com/1iFD/Andaz.1994.1080p.WebHD.AVC.AAC.ESub-DTOne.part7.rar