Code:
Format                                   : MPEG-4
Format profile                           : Base Media
Codec ID                                 : isom (isom/iso2/avc1/mp41)
File size                                : 13.2 GiB
Duration                                 : 2 h 35 min
Overall bit rate mode                    : Variable
Overall bit rate                         : 12.2 Mb/s
Writing application                      : Lavf56.40.101

Video
ID                                       : 1
Format                                   : AVC
Format/Info                              : Advanced Video Codec
Format profile                           : High@L4
Format settings                          : CABAC / 4 Ref Frames
Format settings, CABAC                   : Yes
Format settings, RefFrames               : 4 frames
Codec ID                                 : avc1
Codec ID/Info                            : Advanced Video Coding
Duration                                 : 2 h 35 min
Bit rate                                 : 12.0 Mb/s
Width                                    : 1 920 pixels
Height                                   : 800 pixels
Display aspect ratio                     : 2.40:1
Frame rate mode                          : Constant
Frame rate                               : 24.000 FPS
Color space                              : YUV
Chroma subsampling                       : 4:2:0
Bit depth                                : 8 bits
Scan type                                : Progressive
Bits/(Pixel*Frame)                       : 0.326
Stream size                              : 13.0 GiB (98%)
Writing library                          : x264 core 138

Audio
ID                                       : 2
Format                                   : AAC
Format/Info                              : Advanced Audio Codec
Format profile                           : LC
Codec ID                                 : mp4a-40-2
Duration                                 : 2 h 35 min
Bit rate mode                            : Variable
Bit rate                                 : 192 kb/s
Maximum bit rate                         : 194 kb/s
Channel(s)                               : 2 channels
Channel positions                        : Front: L R
Sampling rate                            : 48.0 kHz
Frame rate                               : 46.875 FPS (1024 SPF)
Compression mode                         : Lossy
Stream size                              : 214 MiB (2%)
Default                                  : Yes
Alternate group                          : 1




SINGLE DIRECT FAST LINKS

Code:
http://www.heroupload.us/20dbd79661f3248d/Mukkabaaz.2018.1080p.WEBHD.MSub-DUS.mp4
2GB LINKS

Code:
http://www.heroupload.us/7b03d79938db252b/Mukkabaaz.2018.1080p.WEBHD.MSub-DUS.part1.rar
http://www.heroupload.us/f692b81269dadfe0/Mukkabaaz.2018.1080p.WEBHD.MSub-DUS.part2.rar
http://www.heroupload.us/55b64d1ea0520799/Mukkabaaz.2018.1080p.WEBHD.MSub-DUS.part3.rar
http://www.heroupload.us/5fd6de46b043ff77/Mukkabaaz.2018.1080p.WEBHD.MSub-DUS.part4.rar
http://www.heroupload.us/3393bf80588a4b35/Mukkabaaz.2018.1080p.WEBHD.MSub-DUS.part5.rar
http://www.heroupload.us/749262568b39476f/Mukkabaaz.2018.1080p.WEBHD.MSub-DUS.part6.rar
http://www.heroupload.us/bce4a2c59f19d2ff/Mukkabaaz.2018.1080p.WEBHD.MSub-DUS.part7.rar
http://www.heroupload.us/947a9a79f8dc12d6/Mukkabaaz.2018.1080p.WEBHD.MSub-DUS-Arabic.srt
http://www.heroupload.us/2b096a10df2d1e07/Mukkabaaz.2018.1080p.WEBHD.MSub-DUS-English.srt
Code:
http://filefloater.com/SDI/Mukkabaaz.2018.1080p.WEBHD.MSub-DUS.part1.rar
http://filefloater.com/SDJ/Mukkabaaz.2018.1080p.WEBHD.MSub-DUS.part2.rar
http://filefloater.com/SDK/Mukkabaaz.2018.1080p.WEBHD.MSub-DUS.part3.rar
http://filefloater.com/SDL/Mukkabaaz.2018.1080p.WEBHD.MSub-DUS.part4.rar
http://filefloater.com/SDM/Mukkabaaz.2018.1080p.WEBHD.MSub-DUS.part5.rar
http://filefloater.com/SDN/Mukkabaaz.2018.1080p.WEBHD.MSub-DUS.part6.rar
http://filefloater.com/SDO/Mukkabaaz.2018.1080p.WEBHD.MSub-DUS.part7.rar
http://filefloater.com/SDP/Mukkabaaz.2018.1080p.WEBHD.MSub-DUS-Arabic.srt
http://filefloater.com/SDQ/Mukkabaaz.2018.1080p.WEBHD.MSub-DUS-English.srt