Code:
General
Format                      : Matroska
Format version              : Version 4 / Version 2
File size                   : 2.36 GiB
Duration                    : 2 h 3 min
Overall bit rate            : 2 738 kb/s
Encoded date                : UTC 2018-04-08 17:50:32
Writing application         : mkvmerge v7.1.0 ('Good Love') 32bit built on Jul 27 2014 12:59:18
Writing library             : libebml v1.3.0 + libmatroska v1.4.1

Video
ID                          : 1
Format                      : AVC
Format/Info                 : Advanced Video Codec
Format profile              : High@L4.2
Format settings, CABAC      : Yes
Format settings, RefFrames  : 4 frames
Codec ID                    : V_MPEG4/ISO/AVC
Duration                    : 2 h 3 min
Bit rate                    : 2 576 kb/s
Width                       : 1 920 pixels
Height                      : 1 104 pixels
Display aspect ratio        : 1.739
Frame rate mode             : Constant
Frame rate                  : 25.000 FPS
Color space                 : YUV
Chroma subsampling          : 4:2:0
Bit depth                   : 8 bits
Scan type                   : Progressive
Bits/(Pixel*Frame)          : 0.049
Stream size                 : 2.22 GiB (94%)
Writing library             : x264 core 155 r2901 7d0ff22
Encoding settings           : cabac=1 / ref=3 / deblock=1:0:0 / analyse=0x3:0x113 / me=hex / subme=7 / psy=1 / psy_rd=1.00:0.00 / mixed_ref=1 / me_range=16 / chroma_me=1 / trellis=1 / 8x8dct=1 / cqm=0 / deadzone=21,11 / fast_pskip=1 / chroma_qp_offset=-2 / threads=18 / lookahead_threads=3 / sliced_threads=0 / nr=0 / decimate=1 / interlaced=0 / bluray_compat=0 / constrained_intra=0 / bframes=3 / b_pyramid=2 / b_adapt=1 / b_bias=0 / direct=1 / weightb=1 / open_gop=0 / weightp=2 / keyint=250 / keyint_min=25 / scenecut=40 / intra_refresh=0 / rc_lookahead=40 / rc=2pass / mbtree=1 / bitrate=2576 / ratetol=1.0 / qcomp=0.60 / qpmin=0 / qpmax=69 / qpstep=4 / cplxblur=20.0 / qblur=0.5 / ip_ratio=1.40 / aq=1:1.00
Language                    : Telugu
Default                     : Yes
Forced                      : No

Audio
ID                          : 2
Format                      : AC-3
Format/Info                 : Audio Coding 3
Format settings, Endianness : Big
Codec ID                    : A_AC3
Duration                    : 2 h 3 min
Bit rate mode               : Constant
Bit rate                    : 160 kb/s
Channel(s)                  : 6 channels
Channel positions           : Front: L C R, Side: L R, LFE
Sampling rate               : 44.1 kHz
Frame rate                  : 28.711 FPS (1536 SPF)
Bit depth                   : 16 bits
Compression mode            : Lossy
Stream size                 : 141 MiB (6%)
Language                    : Telugu
Service kind                : Complete Main
Default                     : Yes
Forced                      : No



SINGLE DIRECT FAST LINKS
Code:
http://www.heroupload.us/3f0603ec42dd4179/Next.Nuvve.2017.Telugu.True.HDTV-Rip.1080p.x264.5.1-TMV.mkv
Code:
http://filefloater.com/ao9/Next.Nuvve.2017.Telugu.True.HDTV-Rip.1080p.x264.5.1-TMV.mkv
700MB LINKS
Code:
http://www.heroupload.us/a2ee9c32988024e8/Next.Nuvve.2017.Telugu.True.HDTV-Rip.1080p.x264.5.1-TMV.part1.rar
http://www.heroupload.us/f36dcab6660c8542/Next.Nuvve.2017.Telugu.True.HDTV-Rip.1080p.x264.5.1-TMV.part2.rar
http://www.heroupload.us/e26ce188d31b01a2/Next.Nuvve.2017.Telugu.True.HDTV-Rip.1080p.x264.5.1-TMV.part3.rar
http://www.heroupload.us/c953b2ba5509586d/Next.Nuvve.2017.Telugu.True.HDTV-Rip.1080p.x264.5.1-TMV.part4.rar
Code:
http://filefloater.com/aoa/Next.Nuvve.2017.Telugu.True.HDTV-Rip.1080p.x264.5.1-TMV.part1.rar
http://filefloater.com/aob/Next.Nuvve.2017.Telugu.True.HDTV-Rip.1080p.x264.5.1-TMV.part2.rar
http://filefloater.com/aoc/Next.Nuvve.2017.Telugu.True.HDTV-Rip.1080p.x264.5.1-TMV.part3.rar
http://filefloater.com/aod/Next.Nuvve.2017.Telugu.True.HDTV-Rip.1080p.x264.5.1-TMV.part4.rar