Code:
Format                      : Matroska
Format version              : Version 4 / Version 2
File size                   : 957 MiB
Duration                    : 2 h 3 min
Overall bit rate            : 1 081 kb/s
Encoded date                : UTC 2018-06-11 11:07:08
Writing application         : mkvmerge v23.0.0 ('The Bride Said No') 64-bit
Writing library             : libebml v1.3.6 + libmatroska v1.4.9

Video
ID                          : 1
Format                      : AVC
Format/Info                 : Advanced Video Codec
Format profile              : Main@L4
Format settings             : CABAC / 8 Ref Frames
Format settings, CABAC      : Yes
Format settings, ReFrames   : 8 frames
Codec ID                    : V_MPEG4/ISO/AVC
Duration                    : 2 h 3 min
Bit rate                    : 950 kb/s
Width                       : 1 280 pixels
Height                      : 548 pixels
Display aspect ratio        : 2.35:1
Frame rate mode             : Constant
Frame rate                  : 25.000 FPS
Color space                 : YUV
Chroma subsampling          : 4:2:0
Bit depth                   : 8 bits
Scan type                   : Progressive
Bits/(Pixel*Frame)          : 0.054
Stream size                 : 842 MiB (88%)
Writing library             : x264 core 155 r2893 b00bcaf
Default                     : Yes
Forced                      : No
Color range                 : Limited
Color primaries             : BT.709
Transfer characteristics    : BT.709
Matrix coefficients         : BT.709

Audio
ID                          : 2
Format                      : AAC
Format/Info                 : Advanced Audio Codec
Format profile              : LC
Codec ID                    : A_AAC-2
Duration                    : 2 h 3 min
Bit rate                    : 128 kb/s
Channel(s)                  : 2 channels
Channel positions           : Front: L R
Sampling rate               : 48.0 kHz
Frame rate                  : 46.875 FPS (1024 SPF)
Compression mode            : Lossy
Delay relative to video     : -37 ms
Stream size                 : 114 MiB (12%)
Default                     : Yes
Forced                      : No








SINGLE DIRECT FAST LINKS
Code:
http://www.heroupload.us/a6dbe90a9442bf97/Super.Rakshak.2018.720p.WEB-DL.x264.AAC.ESub.Hindi.Dubbed-MA.mkv
Code:
http://filefloater.com/1joH/Super.Rakshak.2018.720p.WEB-DL.x264.AAC.ESub.Hindi.Dubbed-MA.mkv