Code:
General
Format                      : MPEG-4
Format profile              : Base Media
Codec ID                    : isom (isom/iso2/avc1/mp41)
File size                   : 4.29 GiB
Duration                    : 2 h 14 min
Overall bit rate mode       : Constant
Overall bit rate            : 4 568 kb/s
Writing application         : Lavf58.2.103

Video
ID                          : 1
Format                      : AVC
Format/Info                 : Advanced Video Codec
Format profile              : Main@L4
Format settings, CABAC      : Yes
Format settings, RefFrames  : 1 frame
Format settings, GOP        : M=1, N=25
Codec ID                    : avc1
Codec ID/Info               : Advanced Video Coding
Duration                    : 2 h 14 min
Bit rate mode               : Constant
Bit rate                    : 4 500 kb/s
Width                       : 1 920 pixels
Height                      : 1 080 pixels
Display aspect ratio        : 16:9
Frame rate mode             : Constant
Frame rate                  : 25.000 FPS
Color space                 : YUV
Chroma subsampling          : 4:2:0
Bit depth                   : 8 bits
Scan type                   : Progressive
Bits/(Pixel*Frame)          : 0.087
Stream size                 : 4.23 GiB (99%)

Audio
ID                          : 2
Format                      : AAC
Format/Info                 : Advanced Audio Codec
Format profile              : LC
Codec ID                    : 40
Duration                    : 2 h 14 min
Bit rate mode               : Constant
Bit rate                    : 61.4 kb/s
Channel(s)                  : 2 channels
Channel positions           : Front: L R
Sampling rate               : 48.0 kHz
Frame rate                  : 46.875 FPS (1024 SPF)
Compression mode            : Lossy
Stream size                 : 59.1 MiB (1%)
Default                     : Yes
Alternate group             : 1




SINGLE DIRECT FAST LINKS
Code:
http://www.heroupload.us/b5b06fe40c8d6aac/Baaghi.2.2018.1080p.UntoucheD.WEB-HD.AVC.AAC.ESubs-Team.IcTv.Exclusive.mp4
Code:
http://filefloater.com/Tnp/Baaghi.2.2018.1080p.UntoucheD.WEB-HD.AVC.AAC.ESubs-Team.IcTv.Exclusive.mp4
1GB LINKS
Code:
http://www.heroupload.us/98758c1873061d8b/Baaghi.2.2018.1080p.UntoucheD.WEB-HD.AVC.AAC.ESubs-Team.IcTv.Exclusive.part1.rar
http://www.heroupload.us/9b0332f07acd5f9c/Baaghi.2.2018.1080p.UntoucheD.WEB-HD.AVC.AAC.ESubs-Team.IcTv.Exclusive.part2.rar
http://www.heroupload.us/b9d7a8555fd74504/Baaghi.2.2018.1080p.UntoucheD.WEB-HD.AVC.AAC.ESubs-Team.IcTv.Exclusive.part3.rar
http://www.heroupload.us/0026ff947d2269ef/Baaghi.2.2018.1080p.UntoucheD.WEB-HD.AVC.AAC.ESubs-Team.IcTv.Exclusive.part4.rar
http://www.heroupload.us/3bdea86c69234a7a/Baaghi.2.2018.1080p.UntoucheD.WEB-HD.AVC.AAC.ESubs-Team.IcTv.Exclusive.part5.rar
http://www.heroupload.us/ccdef877eb85c9ab/Baaghi.2.2018.1080p.UntoucheD.WEB-HD.AVC.AAC.ESubs-Team.IcTv.Exclusive.srt
Code:
http://filefloater.com/Tnq/Baaghi.2.2018.1080p.UntoucheD.WEB-HD.AVC.AAC.ESubs-Team.IcTv.Exclusive.part1.rar
http://filefloater.com/Tnr/Baaghi.2.2018.1080p.UntoucheD.WEB-HD.AVC.AAC.ESubs-Team.IcTv.Exclusive.part2.rar
http://filefloater.com/Tns/Baaghi.2.2018.1080p.UntoucheD.WEB-HD.AVC.AAC.ESubs-Team.IcTv.Exclusive.part3.rar
http://filefloater.com/Tnt/Baaghi.2.2018.1080p.UntoucheD.WEB-HD.AVC.AAC.ESubs-Team.IcTv.Exclusive.part4.rar
http://filefloater.com/Tnu/Baaghi.2.2018.1080p.UntoucheD.WEB-HD.AVC.AAC.ESubs-Team.IcTv.Exclusive.part5.rar
http://filefloater.com/Tnv/Baaghi.2.2018.1080p.UntoucheD.WEB-HD.AVC.AAC.ESubs-Team.IcTv.Exclusive.srt