Code:
General
Format                      : Matroska
Format version              : Version 4 / Version 2
File size                  : 2.30 GiB
Duration                    : 39 min 20 s
Overall bit rate mode      : Variable
Overall bit rate            : 8 352 kb/s
Encoded date                : UTC 2018-03-07 05:35:43
Writing application        : mkvmerge v7.1.0 ('Good Love') 32bit built on Jul 27 2014 12:59:18
Writing library            : libebml v1.3.0 + libmatroska v1.4.1

Video
ID                          : 1
Format                      : AVC
Format/Info                : Advanced Video Codec
Format profile              : High@L4
Format settings            : CABAC / 4 Ref Frames
Format settings, CABAC      : Yes
Format settings, ReFrames  : 4 frames
Codec ID                    : V_MPEG4/ISO/AVC
Duration                    : 39 min 20 s
Bit rate mode              : Variable
Bit rate                    : 7 710 kb/s
Maximum bit rate            : 15.0 Mb/s
Width                      : 1 920 pixels
Height                      : 1 080 pixels
Display aspect ratio        : 16:9
Frame rate mode            : Constant
Frame rate                  : 25.000 FPS
Color space                : YUV
Chroma subsampling          : 4:2:0
Bit depth                  : 8 bits
Scan type                  : Progressive
Bits/(Pixel*Frame)          : 0.149
Stream size                : 2.12 GiB (92%)
Title                      : DTOne
Default                    : Yes
Forced                      : No
Color range                : Limited
Color primaries            : BT.709
Transfer characteristics    : BT.709
Matrix coefficients        : BT.709

Audio
ID                          : 2
Format                      : E-AC-3
Format/Info                : Enhanced Audio Coding 3
Codec ID                    : A_EAC3
Duration                    : 39 min 20 s
Bit rate mode              : Constant
Bit rate                    : 640 kb/s
Channel(s)                  : 6 channels
Channel positions          : Front: L C R, Side: L R, LFE
Sampling rate              : 48.0 kHz
Frame rate                  : 187.500 FPS (256 SPF)
Compression mode            : Lossy
Stream size                : 180 MiB (8%)
Title                      : DTOne
Language                    : Hindi
Service kind                : Complete Main
Default                    : Yes
Forced                      : No

Text
ID                          : 3
Format                      : UTF-8
Codec ID                    : S_TEXT/UTF8
Codec ID/Info              : UTF-8 Plain Text
Duration                    : 37 min 16 s
Bit rate                    : 53 b/s
Count of elements          : 527
Stream size                : 14.7 KiB (0%)
Title                      : DTOne
Language                    : English
Default                    : No
Forced                      : No

Menu
00:00:00.000                : en:Amazon Original
00:00:06.000                : en:When you leave the last message
00:02:48.000                : en:Opening Credits
00:03:41.000                : en:Kabir receives an information
00:04:43.000                : en:A raid with the information achieved
00:05:29.000                : en:A small detail you overlooked
00:06:25.000                : en:Kabir pays a surprise visit
00:09:14.000                : en:Kabir's public fight
00:10:29.000                : en:Someone is a sore loser
00:12:05.000                : en:Sublime message associated with the gift
00:15:12.000                : en:An unexpected phone call
00:17:01.000                : en:Danny and Juliet are heartbroken
00:17:33.000                : en:Aruna tells about Josh's condition
00:20:02.000                : en:Danny's word of wisdom fall on deaf ears
00:24:51.000                : en:Kabir and his recurring nightmare
00:26:22.000                : en:Kabir and Ria's argument
00:29:27.000                : en:Nilesh tries to help Kabir
00:32:47.000                : en:An emotional Juliet
00:35:31.000                : en:Danny and his dilemma
00:36:25.000                : en:A father's fight and a decision made
00:38:11.000                : en:End Credits



SINGLE DIRECT FAST LINKS


Code:
http://www.heroupload.us/e159e0d9c300377d/Breathe.S01E01.The.Promise.1080p.WebDL-DTOne.mkv
http://www.heroupload.us/8e7728e2bfeb6b4b/Breathe.S01E02.The.Hunt.Begins.1080p.WebDL-DTOne..mkv
http://www.heroupload.us/670dbf4d189555f5/Breathe.S01E03.Safety.First.1080p.WebDL-DTOne..mkv
http://www.heroupload.us/1b51fde9dc437494/Breathe.S01E04.The.Audition.1080p.WebDL-DTOne..mkv
http://www.heroupload.us/7de168f9d2492607/Breathe.S01E05.Bad.Fish.1080p.WebDL-DTOne..mkv
http://www.heroupload.us/3e732c0a11f9210c/Breathe.S01E06.Blind.Mans.Bluff.1080p.WebDL-DTOne..mkv
http://www.heroupload.us/0b5ba44bb34d78ae/Breathe.S01E07.Its.In.The.Eyes.1080p.WebDL-DTOne..mkv
http://www.heroupload.us/32f46868367afbe2/Breathe.S01E08.Body.Parts.1080p.WebDL-DTOne..mkv
Code:
http://filefloater.com/cxh/Breathe.S01E01.The.Promise.1080p.WebDL-DTOne.mkv
http://filefloater.com/9W0/Breathe.S01E02.The.Hunt.Begins.1080p.WebDL-DTOne..mkv
http://filefloater.com/9W1/Breathe.S01E03.Safety.First.1080p.WebDL-DTOne..mkv
http://filefloater.com/9W2/Breathe.S01E04.The.Audition.1080p.WebDL-DTOne..mkv
http://filefloater.com/9W3/Breathe.S01E05.Bad.Fish.1080p.WebDL-DTOne..mkv
http://filefloater.com/9W4/Breathe.S01E06.Blind.Mans.Bluff.1080p.WebDL-DTOne..mkv
http://filefloater.com/9W5/Breathe.S01E07.Its.In.The.Eyes.1080p.WebDL-DTOne..mkv
http://filefloater.com/9W6/Breathe.S01E08.Body.Parts.1080p.WebDL-DTOne..mkv