Code:
Movie Info
Banner :
Year : 2018
Cast : Amrinder Gill, Simi Chahal, Harish Verma |
Video: AVC
Audio : AAC
Genre : Comedy, Drama
Subtitles : None
Resolution : 1280 X 720
Runtime : 2hr 08min xx

Video
ID                                      : 1
Format                                  : AVC
Format/Info                              : Advanced Video Codec
Format profile                          : Main@L3.1
Format settings                          : CABAC / 3 Ref Frames
Format settings, CABAC                  : Yes
Format settings, RefFrames              : 3 frames
Codec ID                                : avc1
Codec ID/Info                            : Advanced Video Coding
Duration                                : 2 h 8 min
Bit rate                                : 1 124 kb/s
Width                                    : 1 280 pixels
Height                                  : 720 pixels
Display aspect ratio                    : 16:9
Frame rate mode                          : Constant
Frame rate                              : 24.000 FPS
Color space                              : YUV
Chroma subsampling                      : 4:2:0
Bit depth                                : 8 bits
Scan type                                : Progressive
Bits/(Pixel*Frame)                      : 0.051
Stream size                              : 1.01 GiB (90%)
Title                                    : ISO Media file produced by Google Inc. Created on: 05/17/2018.
Encoded date                            : UTC 2018-05-17 13:51:48
Tagged date                              : UTC 2018-05-17 13:51:48
Color range                              : Limited
Color primaries                          : BT.709
Transfer characteristics                : BT.709
Matrix coefficients                      : BT.709

Audio
ID                                      : 2
Format                                  : AAC
Format/Info                              : Advanced Audio Codec
Format profile                          : LC
Codec ID                                : mp4a-40-2
Duration                                : 2 h 8 min
Bit rate mode                            : Variable
Bit rate                                : 128 kb/s
Channel(s)                              : 2 channels
Channel positions                        : Front: L R
Sampling rate                            : 44.1 kHz
Frame rate                              : 43.066 FPS (1024 SPF)
Compression mode                        : Lossy
Stream size                              : 118 MiB (10%)
Encoded date                            : UTC 2018-05-17 13:51:48
Tagged date                              : UTC 2018-05-17 13:51:48



SINGLE DIRECT FAST LINKS
Code:
http://www.heroupload.us/d8b68ad3d7980479/Golak.Bugni.Bank.Te.Batua.2018.720P.UntoucheD.WEB-HD.AVC.AAC-Team.IcTv.Exclusive.mp4
Code:
http://filefloater.com/Ti4/Golak.Bugni.Bank.Te.Batua.2018.720P.UntoucheD.WEB-HD.AVC.AAC-Team.IcTv.Exclusive.mp4