Code:
General
Format                      : Matroska
Format version              : Version 4 / Version 2
File size                   : 1.20 GiB
Duration                    : 2 h 12 min
Overall bit rate            : 1 304 kb/s

Video
ID                          : 1
Format                      : AVC
Format/Info                 : Advanced Video Codec
Format profile              : High@L4.1
Format settings             : CABAC / 4 Ref Frames
Format settings, CABAC      : Yes
Format settings, ReFrames   : 4 frames
Codec ID                    : V_MPEG4/ISO/AVC
Duration                    : 2 h 12 min
Bit rate                    : 1 200 kb/s
Width                       : 1 280 pixels
Height                      : 544 pixels
Display aspect ratio        : 2.35:1
Frame rate mode             : Constant
Frame rate                  : 25.000 FPS
Color space                 : YUV
Chroma subsampling          : 4:2:0
Bit depth                   : 8 bits
Scan type                   : Progressive
Bits/(Pixel*Frame)          : 0.069
Stream size                 : 1.11 GiB (92%)
Writing library             : x264 core 148 r2708 86b7198
Default                     : Yes
Forced                      : No

Audio
ID                          : 2
Format                      : AAC
Format/Info                 : Advanced Audio Codec
Format profile              : LC
Codec ID                    : A_AAC-2
Duration                    : 2 h 12 min
Bit rate                    : 96.0 kb/s
Channel(s)                  : 2 channels
Channel positions           : Front: L R
Sampling rate               : 44.1 kHz
Frame rate                  : 43.066 FPS (1024 SPF)
Compression mode            : Lossy
Stream size                 : 90.8 MiB (7%)
Language                    : English
Default                     : Yes
Forced                      : No




SINGLE DIRECT FAST LINKS
Code:
http://filefloater.com/4sl/Pad.Man.2018.720p.pDVDRip.x264-Exclusive.mkv
Code:
https://www.heroupload.com/050445c79c39006f/Pad.Man.2018.720p.pDVDRip.x264-Exclusive.mkv