Code:
Format                      : Matroska
Format version              : Version 4 / Version 2
File size                   : 3.04 GiB
Duration                    : 2 h 6 min
Overall bit rate mode       : Variable
Overall bit rate            : 3 427 kb/s
Encoded date                : UTC 2018-02-09 15:09:58
Writing application         : mkvmerge v7.1.0 ('Good Love') 32bit built on Jul 27 2014 12:59:18
Writing library             : libebml v1.3.0 + libmatroska v1.4.1

Video
ID                          : 1
Format                      : AVC
Format/Info                 : Advanced Video Codec
Format profile              : Baseline@L3.2
Format settings, CABAC      : No
Format settings, RefFrames  : 1 frame
Format settings, GOP        : M=1, N=25
Codec ID                    : V_MPEG4/ISO/AVC
Duration                    : 2 h 6 min
Bit rate mode               : Variable
Bit rate                    : 3 230 kb/s
Maximum bit rate            : 6 888 kb/s
Width                       : 1 366 pixels
Height                      : 768 pixels
Display aspect ratio        : 16:9
Frame rate mode             : Variable
Frame rate                  : 28.379 FPS
Original frame rate         : 30.000 FPS
Color space                 : YUV
Chroma subsampling          : 4:2:0
Bit depth                   : 8 bits
Scan type                   : Progressive
Bits/(Pixel*Frame)          : 0.108
Stream size                 : 2.86 GiB (94%)
Language                    : Telugu
Default                     : Yes
Forced                      : No

Audio
ID                          : 2
Format                      : AAC
Format/Info                 : Advanced Audio Codec
Format profile              : LC
Codec ID                    : A_AAC
Duration                    : 2 h 6 min
Bit rate                    : 192 kb/s
Channel(s)                  : 2 channels
Channel positions           : Front: L R
Sampling rate               : 44.1 kHz
Frame rate                  : 43.066 FPS (1024 SPF)
Compression mode            : Lossy
Stream size                 : 177 MiB (6%)
Language                    : Telugu
Default                     : Yes
Forced                      : No




SINGLE DIRECT FAST LINKS
Code:
http://filefloater.com/4rn/Juliet.Lover.of.Idiot.2017.Telugu.WEB-HD.720p.AVC.AAC-TMV.mkv
Code:
https://www.heroupload.com/b8ef6b1889eab90b/Juliet.Lover.of.Idiot.2017.Telugu.WEB-HD.720p.AVC.AAC-TMV.mkv
700MB LINKS
Code:
http://filefloater.com/4ro/Juliet.Lover.of.Idiot.2017.Telugu.WEB-HD.720p.AVC.AAC-TMV.part1.rar
http://filefloater.com/4rp/Juliet.Lover.of.Idiot.2017.Telugu.WEB-HD.720p.AVC.AAC-TMV.part2.rar
http://filefloater.com/4rq/Juliet.Lover.of.Idiot.2017.Telugu.WEB-HD.720p.AVC.AAC-TMV.part3.rar
http://filefloater.com/4rr/Juliet.Lover.of.Idiot.2017.Telugu.WEB-HD.720p.AVC.AAC-TMV.part4.rar
http://filefloater.com/4rs/Juliet.Lover.of.Idiot.2017.Telugu.WEB-HD.720p.AVC.AAC-TMV.part5.rar
http://filefloater.com/4rt/Juliet.Lover.of.Idiot.2017.Telugu.WEB-HD.720p.AVC.AAC-TMV.srt
Code:
https://www.heroupload.com/df4dc80e7ca881d9/Juliet.Lover.of.Idiot.2017.Telugu.WEB-HD.720p.AVC.AAC-TMV.part1.rar
https://www.heroupload.com/4b0700e097baf983/Juliet.Lover.of.Idiot.2017.Telugu.WEB-HD.720p.AVC.AAC-TMV.part2.rar
https://www.heroupload.com/676007c6945030b6/Juliet.Lover.of.Idiot.2017.Telugu.WEB-HD.720p.AVC.AAC-TMV.part3.rar
https://www.heroupload.com/7110fc06eac7f759/Juliet.Lover.of.Idiot.2017.Telugu.WEB-HD.720p.AVC.AAC-TMV.part4.rar
https://www.heroupload.com/3699996044a04dc1/Juliet.Lover.of.Idiot.2017.Telugu.WEB-HD.720p.AVC.AAC-TMV.part5.rar
https://www.heroupload.com/9bc355367f02b82b/Juliet.Lover.of.Idiot.2017.Telugu.WEB-HD.720p.AVC.AAC-TMV.srt