Code:
General
Format                      : Matroska
Format version              : Version 4 / Version 2
File size                   : 2.47 GiB
Duration                    : 2 h 27 min
Overall bit rate            : 2 408 kb/s
Encoded date                : UTC 2018-01-13 18:44:19
Writing application         : mkvmerge v7.1.0 ('Good Love') 32bit built on Jul 27 2014 12:59:18
Writing library             : libebml v1.3.0 + libmatroska v1.4.1

Video
ID                          : 1
Format                      : AVC
Format/Info                 : Advanced Video Codec
Format profile              : High@L4
Format settings, CABAC      : Yes
Format settings, RefFrames  : 4 frames
Codec ID                    : V_MPEG4/ISO/AVC
Duration                    : 2 h 26 min
Bit rate                    : 2 246 kb/s
Width                       : 1 920 pixels
Height                      : 816 pixels
Display aspect ratio        : 2.35:1
Frame rate mode             : Constant
Frame rate                  : 25.000 FPS
Color space                 : YUV
Chroma subsampling          : 4:2:0
Bit depth                   : 8 bits
Scan type                   : Progressive
Bits/(Pixel*Frame)          : 0.057
Stream size                 : 2.31 GiB (93%)
Writing library             : x264 core 152 r2851 ba24899
Encoding settings           : cabac=1 / ref=3 / deblock=1:0:0 / analyse=0x3:0x113 / me=hex / subme=7 / psy=1 / psy_rd=1.00:0.00 / mixed_ref=1 / me_range=16 / chroma_me=1 / trellis=1 / 8x8dct=1 / cqm=0 / deadzone=21,11 / fast_pskip=1 / chroma_qp_offset=-2 / threads=25 / lookahead_threads=4 / sliced_threads=0 / nr=0 / decimate=1 / interlaced=0 / bluray_compat=0 / constrained_intra=0 / bframes=3 / b_pyramid=2 / b_adapt=1 / b_bias=0 / direct=1 / weightb=1 / open_gop=0 / weightp=2 / keyint=250 / keyint_min=25 / scenecut=40 / intra_refresh=0 / rc_lookahead=40 / rc=2pass / mbtree=1 / bitrate=2246 / ratetol=1.0 / qcomp=0.60 / qpmin=0 / qpmax=69 / qpstep=4 / cplxblur=20.0 / qblur=0.5 / ip_ratio=1.40 / aq=1:1.00
Language                    : Telugu
Default                     : Yes
Forced                      : No

Audio
ID                          : 2
Format                      : AC-3
Format/Info                 : Audio Coding 3
Format settings, Endianness : Big
Codec ID                    : A_AC3
Duration                    : 2 h 27 min
Bit rate mode               : Constant
Bit rate                    : 160 kb/s
Channel(s)                  : 6 channels
Channel positions           : Front: L C R, Side: L R, LFE
Sampling rate               : 44.1 kHz
Frame rate                  : 28.711 FPS (1536 SPF)
Bit depth                   : 16 bits
Compression mode            : Lossy
Stream size                 : 168 MiB (7%)
Language                    : Telugu
Service kind                : Complete Main
Default                     : Yes
Forced                      : No


SINGLE DIRECT FAST LINKS
Code:
https://www.heroupload.com/dd6c3c055256632d/Jai.Lava.Kusa.2017.Telugu.HDTV-Rip.1080p.x264.DD5.1-TMV.mkv
Code:
http://filefloater.com/9qj/Jai.Lava.Kusa.2017.Telugu.HDTV-Rip.1080p.x264.DD5.1-TMV.mkv
700MB LINKS
Code:
https://www.heroupload.com/31930db5886032ac/Jai.Lava.Kusa.2017.Telugu.HDTV-Rip.1080p.x264.DD5.1-TMV.part1.rar
https://www.heroupload.com/f6191b0c3597d245/Jai.Lava.Kusa.2017.Telugu.HDTV-Rip.1080p.x264.DD5.1-TMV.part2.rar
https://www.heroupload.com/e8c3702baf24d76e/Jai.Lava.Kusa.2017.Telugu.HDTV-Rip.1080p.x264.DD5.1-TMV.part3.rar
https://www.heroupload.com/db047212cbd11fdc/Jai.Lava.Kusa.2017.Telugu.HDTV-Rip.1080p.x264.DD5.1-TMV.part4.rar
Code:
http://filefloater.com/9qk/Jai.Lava.Kusa.2017.Telugu.HDTV-Rip.1080p.x264.DD5.1-TMV.part1.rar
http://filefloater.com/9qm/Jai.Lava.Kusa.2017.Telugu.HDTV-Rip.1080p.x264.DD5.1-TMV.part2.rar
http://filefloater.com/9qn/Jai.Lava.Kusa.2017.Telugu.HDTV-Rip.1080p.x264.DD5.1-TMV.part3.rar
http://filefloater.com/9qp/Jai.Lava.Kusa.2017.Telugu.HDTV-Rip.1080p.x264.DD5.1-TMV.part4.rar