Code:
General
Format                      : AVI
Format/Info                 : Audio Video Interleave
File size                   : 690 MiB
Duration                    : 2 h 26 min
Overall bit rate mode       : Variable
Overall bit rate            : 656 kb/s

Video
ID                          : 0
Format                      : MPEG-4 Visual
Format profile              : Advanced Simple@L5
Format settings, BVOP       : 2
Format settings, QPel       : No
Format settings, GMC        : No warppoints
Format settings, Matrix     : Default (H.263)
Codec ID                    : XVID
Codec ID/Hint               : XviD
Duration                    : 2 h 26 min
Bit rate                    : 552 kb/s
Width                       : 704 pixels
Height                      : 296 pixels
Display aspect ratio        : 2.40:1
Frame rate                  : 25.000 FPS
Color space                 : YUV
Chroma subsampling          : 4:2:0
Bit depth                   : 8 bits
Scan type                   : Progressive
Compression mode            : Lossy
Bits/(Pixel*Frame)          : 0.106
Stream size                 : 581 MiB (84%)
Writing library             : XviD 67

Audio
ID                          : 1
Format                      : MPEG Audio
Format version              : Version 1
Format profile              : Layer 3
Mode                        : Joint stereo
Mode extension              : MS Stereo
Codec ID                    : 55
Codec ID/Hint               : MP3
Duration                    : 2 h 26 min
Bit rate mode               : Variable
Bit rate                    : 96.0 kb/s
Channel(s)                  : 2 channels
Sampling rate               : 32.0 kHz
Compression mode            : Lossy
Stream size                 : 98.5 MiB (14%)
Alignment                   : Aligned on interleaves
Interleave, duration        : 36  ms (0.90 video frame)
Interleave, preload duratio : 209  ms
Writing library             : LAME3.99r
Encoding settings           : -m j -V 4 -q 3 -lowpass 15.1 --abr 96


SINGLE DIRECT FAST LINKS
Code:
https://www.heroupload.com/d7f1fa3879e315c1/Jai.Lava.Kusa.2017.Telugu.HDTV-Rip.XviD.700MB.MP3-TMV.avi
Code:
http://filefloater.com/9qq/Jai.Lava.Kusa.2017.Telugu.HDTV-Rip.XviD.700MB.MP3-TMV.avi