Code:
Format                      : MPEG-4
Format profile              : Base Media
Codec ID                    : isom (isom/iso2/avc1/mp41)
File size                   : 5.04 GiB
Duration                    : 1 h 57 min
Overall bit rate mode       : Variable
Overall bit rate            : 6 135 kb/s
Writing application         : Lavf56.40.101

Video
ID                          : 1
Format                      : AVC
Format/Info                 : Advanced Video Codec
Format profile              : Main@L3.1
Format settings             : CABAC / 2 Ref Frames
Format settings, CABAC      : Yes
Format settings, ReFrames   : 2 frames
Codec ID                    : avc1
Codec ID/Info               : Advanced Video Coding
Duration                    : 1 h 57 min
Bit rate                    : 6 000 kb/s
Width                       : 1 280 pixels
Height                      : 544 pixels
Display aspect ratio        : 2.35:1
Frame rate mode             : Constant
Frame rate                  : 25.000 FPS
Color space                 : YUV
Chroma subsampling          : 4:2:0
Bit depth                   : 8 bits
Scan type                   : Progressive
Bits/(Pixel*Frame)          : 0.345
Stream size                 : 4.93 GiB (98%)
Writing library             : x264 core 138


Audio
ID                          : 2
Format                      : AAC
Format/Info                 : Advanced Audio Codec
Format profile              : LC
Codec ID                    : mp4a-40-2
Duration                    : 1 h 57 min
Bit rate mode               : Variable
Bit rate                    : 128 kb/s
Maximum bit rate            : 131 kb/s
Channel(s)                  : 2 channels
Channel positions           : Front: L R
Sampling rate               : 48.0 kHz
Frame rate                  : 46.875 FPS (1024 SPF)
Compression mode            : Lossy
Stream size                 : 108 MiB (2%)
Default                     : Yes
Alternate group             : 1




SINGLE DIRECT FAST LINKS

Code:
https://www.heroupload.com/0618cfd4e7deb666/Haseena.Parker.2017.720p.WEB-HD.AAC.2.0-Team.Jio.Exclusive.mp4
1GB LINKS

Code:
https://www.heroupload.com/b2536dac9e700e32/Haseena.Parker.2017.720p.WEB-HD.AAC.2.0-Team.Jio.Exclusive.part1.rar
https://www.heroupload.com/d4c013e4add6916c/Haseena.Parker.2017.720p.WEB-HD.AAC.2.0-Team.Jio.Exclusive.part2.rar
https://www.heroupload.com/12aaf71b525c0bd1/Haseena.Parker.2017.720p.WEB-HD.AAC.2.0-Team.Jio.Exclusive.part3.rar
https://www.heroupload.com/bd6db0229a634672/Haseena.Parker.2017.720p.WEB-HD.AAC.2.0-Team.Jio.Exclusive.part4.rar
https://www.heroupload.com/cd2e858a9199de4e/Haseena.Parker.2017.720p.WEB-HD.AAC.2.0-Team.Jio.Exclusive.part5.rar
https://www.heroupload.com/972069f56ea8c54d/Haseena.Parker.2017.720p.WEB-HD.AAC.2.0-Team.Jio.Exclusive.part6.rar
Code:
http://filefloater.com/9ox/Haseena.Parker.2017.720p.WEB-HD.AAC.2.0-Team.Jio.Exclusive.part1.rar
http://filefloater.com/9oy/Haseena.Parker.2017.720p.WEB-HD.AAC.2.0-Team.Jio.Exclusive.part2.rar
http://filefloater.com/9oz/Haseena.Parker.2017.720p.WEB-HD.AAC.2.0-Team.Jio.Exclusive.part3.rar
http://filefloater.com/4c0/Haseena.Parker.2017.720p.WEB-HD.AAC.2.0-Team.Jio.Exclusive.part4.rar
http://filefloater.com/4c1/Haseena.Parker.2017.720p.WEB-HD.AAC.2.0-Team.Jio.Exclusive.part5.rar
http://filefloater.com/4c2/Haseena.Parker.2017.720p.WEB-HD.AAC.2.0-Team.Jio.Exclusive.part6.rar