Code:
Format                      : MPEG-4
Format profile              : Base Media
Codec ID                    : isom (isom/iso2/avc1/mp41)
File size                   : 1.10 GiB
Duration                    : 1 h 57 min
Overall bit rate mode       : Variable
Overall bit rate            : 1 334 kb/s
Writing application         : Lavf56.40.101

Video
ID                          : 1
Format                      : AVC
Format/Info                 : Advanced Video Codec
Format profile              : Main@L2.1
Format settings             : CABAC / 2 Ref Frames
Format settings, CABAC      : Yes
Format settings, ReFrames   : 2 frames
Codec ID                    : avc1
Codec ID/Info               : Advanced Video Coding
Duration                    : 1 h 57 min
Bit rate                    : 1 200 kb/s
Width                       : 640 pixels
Height                      : 272 pixels
Display aspect ratio        : 2.35:1
Frame rate mode             : Constant
Frame rate                  : 25.000 FPS
Color space                 : YUV
Chroma subsampling          : 4:2:0
Bit depth                   : 8 bits
Scan type                   : Progressive
Bits/(Pixel*Frame)          : 0.276
Stream size                 : 1 009 MiB (90%)
Writing library             : x264 core 138


Audio
ID                          : 2
Format                      : AAC
Format/Info                 : Advanced Audio Codec
Format profile              : LC
Codec ID                    : mp4a-40-2
Duration                    : 1 h 57 min
Bit rate mode               : Variable
Bit rate                    : 128 kb/s
Maximum bit rate            : 131 kb/s
Channel(s)                  : 2 channels
Channel positions           : Front: L R
Sampling rate               : 48.0 kHz
Frame rate                  : 46.875 FPS (1024 SPF)
Compression mode            : Lossy
Stream size                 : 108 MiB (10%)
Default                     : Yes
Alternate group             : 1













SINGLE DIRECT FAST LINKS
Code:
https://www.heroupload.com/7f0533456efe1abf/Haseena.Parker.2017.x264.HDRip.AAC.2.0-Team.Jio.Exclusive.mp4
Code:
http://filefloater.com/4cd/Haseena.Parker.2017.x264.HDRip.AAC.2.0-Team.Jio.Exclusive.mp4