Code:
Format : MPEG-4
Format profile : Base Media / Version 2
Codec ID : mp42 (isom/iso2/avc1/mp41)
File size : 3.27 GiB
Duration : 2 h 14 min
Overall bit rate : 3 467 kb/s
Encoded date : UTC 2018-01-09 14:11:07
Tagged date : UTC 2018-01-09 14:11:07
Writing application : HandBrake 1.0.7 2017040900
Video
ID : 1
Format : AVC
Format/Info : Advanced Video Codec
Format profile : Main@L4
Format settings : CABAC / 4 Ref Frames
Format settings, CABAC : Yes
Format settings, ReFrames : 4 frames
Codec ID : avc1
Codec ID/Info : Advanced Video Coding
Duration : 2 h 14 min
Bit rate : 2 823 kb/s
Width : 1 920 pixels
Height : 804 pixels
Display aspect ratio : 2.40:1
Frame rate mode : Variable
Frame rate : 24.000 FPS
Minimum frame rate : 11.952 FPS
Maximum frame rate : 24.000 FPS
Color space : YUV
Chroma subsampling : 4:2:0
Bit depth : 8 bits
Scan type : Progressive
Bits/(Pixel*Frame) : 0.076
Stream size : 2.66 GiB (81%)
Writing library : x264 core 148 r2708 86b7198
Encoding settings : cabac=1 / ref=2 / deblock=1:0:0 / analyse=0x1:0x111 / me=hex / subme=6 / psy=1 / psy_rd=1.00:0.00 / mixed_ref=1 / me_range=16 / chroma_me=1 / trellis=1 / 8x8dct=0 / cqm=0 / deadzone=21,11 / fast_pskip=1 / chroma_qp_offset=-2 / threads=12 / lookahead_threads=2 / sliced_threads=0 / nr=0 / decimate=1 / interlaced=0 / bluray_compat=0 / constrained_intra=0 / bframes=3 / b_pyramid=2 / b_adapt=1 / b_bias=0 / direct=1 / weightb=1 / open_gop=0 / weightp=1 / keyint=240 / keyint_min=24 / scenecut=40 / intra_refresh=0 / rc_lookahead=30 / rc=crf / mbtree=1 / crf=22.0 / qcomp=0.60 / qpmin=0 / qpmax=69 / qpstep=4 / vbv_maxrate=20000 / vbv_bufsize=25000 / crf_max=0.0 / nal_hrd=none / filler=0 / ip_ratio=1.40 / aq=1:1.00
Encoded date : UTC 2018-01-09 14:11:07
Tagged date : UTC 2018-01-09 14:11:07
Color range : Limited
Color primaries : BT.709
Transfer characteristics : BT.709
Matrix coefficients : BT.709
Audio
ID : 2
Format : AC-3
Format/Info : Audio Coding 3
Codec ID : ac-3
Duration : 2 h 14 min
Bit rate mode : Constant
Bit rate : 640 kb/s
Channel(s) : 6 channels
Channel positions : Front: L C R, Side: L R, LFE
Sampling rate : 48.0 kHz
Frame rate : 31.250 FPS (1536 SPF)
Bit depth : 16 bits
Compression mode : Lossy
Stream size : 617 MiB (18%)
Title : Surround / Surround
Service kind : Complete Main
Default : Yes
Alternate group : 1





SINGLE DIRECT FAST LINKS
Code:
https://www.heroupload.com/2ebbed53e19911d7/The.House.Next.Door.2017.x264.1080p.WEBDL.Rip.DD5.1-Team.Jio.Exclusive.mp4
Code:
http://filefloater.com/9nw/The.House.Next.Door.2017.x264.1080p.WEBDL.Rip.DD5.1-Team.Jio.Exclusive.mp4
1GB LINKS


Code:
https://www.heroupload.com/18bcc42e0c6cd024/The.House.Next.Door.2017.x264.1080p.WEBDL.Rip.DD5.1-Team.Jio.Exclusive.part1.rar
https://www.heroupload.com/ea589879f381077d/The.House.Next.Door.2017.x264.1080p.WEBDL.Rip.DD5.1-Team.Jio.Exclusive.part2.rar
https://www.heroupload.com/f5664792f132a956/The.House.Next.Door.2017.x264.1080p.WEBDL.Rip.DD5.1-Team.Jio.Exclusive.part3.rar
https://www.heroupload.com/913763dd7ce6e5af/The.House.Next.Door.2017.x264.1080p.WEBDL.Rip.DD5.1-Team.Jio.Exclusive.part4.rar
Code:
http://filefloater.com/9nx/The.House.Next.Door.2017.x264.1080p.WEBDL.Rip.DD5.1-Team.Jio.Exclusive.part1.rar
http://filefloater.com/9ny/The.House.Next.Door.2017.x264.1080p.WEBDL.Rip.DD5.1-Team.Jio.Exclusive.part2.rar
http://filefloater.com/9nz/The.House.Next.Door.2017.x264.1080p.WEBDL.Rip.DD5.1-Team.Jio.Exclusive.part3.rar
http://filefloater.com/4b0/The.House.Next.Door.2017.x264.1080p.WEBDL.Rip.DD5.1-Team.Jio.Exclusive.part4.rar