Code:
Format : Matroska
Format version : Version 4 / Version 2
File size : 1.35 GiB
Duration : 2 h 14 min
Overall bit rate : 1 434 kb/s
Video
ID : 1
Format : AVC
Format/Info : Advanced Video Codec
Format profile : Main@L3.1
Format settings : CABAC / 4 Ref Frames
Format settings, CABAC : Yes
Format settings, ReFrames : 4 frames
Codec ID : V_MPEG4/ISO/AVC
Duration : 2 h 14 min
Bit rate : 1 213 kb/s
Width : 1 280 pixels
Height : 444 pixels
Display aspect ratio : 2.40:1
Original display aspect rat : 2.40:1
Frame rate mode : Constant
Frame rate : 24.000 FPS
Color space : YUV
Chroma subsampling : 4:2:0
Bit depth : 8 bits
Scan type : Progressive
Bits/(Pixel*Frame) : 0.089
Stream size : 1.14 GiB (85%)
Writing library : x264 core 148 r2708 86b7198
Audio
ID : 2
Format : E-AC-3
Format/Info : Enhanced Audio Coding 3
Codec ID : A_EAC3
Duration : 2 h 14 min
Bit rate mode : Constant
Bit rate : 192 kb/s
Channel(s) : 6 channels
Channel positions : Front: L C R, Side: L R, LFE
Sampling rate : 48.0 kHz
Frame rate : 187.500 FPS (256 SPF)
Compression mode : Lossy
Stream size : 185 MiB (13%)
Title : Surround
Service kind : Complete Main
Default : Yes
Forced : No
[IMG][/IMG]




SINGLE DIRECT FAST LINKS

Code:
https://www.heroupload.com/5cf320072613e981/The.House.Next.Door.2017.720p.HD.x264.HDRip.DD5.1-Team.Jio.Exclusive.mkv
Code:
http://filefloater.com/9nv/The.House.Next.Door.2017.720p.HD.x264.HDRip.DD5.1-Team.Jio.Exclusive.mkv