Code:
General
Format                      : AVI
Format/Info                 : Audio Video Interleave
File size                   : 701 MiB
Duration                    : 2 h 24 min
Overall bit rate mode       : Variable
Overall bit rate            : 680 kb/s

Video
ID                          : 0
Format                      : MPEG-4 Visual
Format profile              : Advanced Simple@L5
Format settings, BVOP       : 2
Format settings, QPel       : No
Format settings, GMC        : No warppoints
Format settings, Matrix     : Default (H.263)
Codec ID                    : XVID
Codec ID/Hint               : XviD
Duration                    : 2 h 24 min
Bit rate                    : 570 kb/s
Width                       : 672 pixels
Height                      : 288 pixels
Display aspect ratio        : 2.35:1
Frame rate                  : 23.976 (24000/1001) FPS
Color space                 : YUV
Chroma subsampling          : 4:2:0
Bit depth                   : 8 bits
Scan type                   : Progressive
Compression mode            : Lossy
Bits/(Pixel*Frame)          : 0.123
Stream size                 : 587 MiB (84%)
Writing library             : XviD 67

Audio
ID                          : 1
Format                      : MPEG Audio
Format version              : Version 1
Format profile              : Layer 3
Mode                        : Joint stereo
Mode extension              : MS Stereo
Codec ID                    : 55
Codec ID/Hint               : MP3
Duration                    : 2 h 24 min
Bit rate mode               : Variable
Bit rate                    : 96.0 kb/s
Channel(s)                  : 2 channels
Sampling rate               : 48.0 kHz
Compression mode            : Lossy
Stream size                 : 101 MiB (14%)
Alignment                   : Aligned on interleaves
Interleave, duration        : 24  ms (0.58 video frame)
Interleave, preload duratio : 115  ms
Writing library             : LAME3.99r
Encoding settings           : -m j -V 4 -q 3 -lowpass 15.1 --abr 96

Text
ID                          : 2
Format                      : SubRip
Duration                    : 2 h 24 min
Bit rate                    : 111 b/s
Compression mode            : Lossless
Stream size                 : 117 KiB (0%)


SINGLE DIRECT FAST LINKS

Code:
https://www.heroupload.com/96596ead44fb80f5/Marana.Sasanam.2017.Telugu.DVDRip.XviD.700MB.Line.Audio.ESub-TMV.avi
Code:
http://filefloater.com/9nu/Marana.Sasanam.2017.Telugu.DVDRip.XviD.700MB.Line.Audio.ESub-TMV.avi