Code:
Format                      : AVI
Format/Info                 : Audio Video Interleave
File size                   : 1.21 GiB
Duration                    : 1 h 52 min
Overall bit rate            : 1 547 kb/s

Video
ID                          : 0
Format                      : MPEG-4 Visual
Format profile              : Advanced Simple@L5
Format settings             : BVOP2
Format settings, BVOP       : 2
Format settings, QPel       : No
Format settings, GMC        : No warppoints
Format settings, Matrix     : Default (H.263)
Codec ID                    : XVID
Codec ID/Hint               : XviD
Duration                    : 1 h 52 min
Bit rate                    : 1 315 kb/s
Width                       : 640 pixels
Height                      : 272 pixels
Display aspect ratio        : 2.35:1
Frame rate                  : 29.970 (30000/1001) FPS
Color space                 : YUV
Chroma subsampling          : 4:2:0
Bit depth                   : 8 bits
Scan type                   : Progressive
Compression mode            : Lossy
Bits/(Pixel*Frame)          : 0.252
Stream size                 : 1.03 GiB (85%)
Writing library             : XviD 67

Audio
ID                          : 1
Format                      : MPEG Audio
Format version              : Version 1
Format profile              : Layer 2
Codec ID                    : 50
Duration                    : 1 h 52 min
Bit rate mode               : Constant
Bit rate                    : 224 kb/s
Channel(s)                  : 2 channels
Sampling rate               : 44.1 kHz
Compression mode            : Lossy
Stream size                 : 180 MiB (14%)
Alignment                   : Aligned on interleaves
Interleave, duration        : 133  ms (4.00 video frames)
Interleave, preload duratio : 208  ms
Title                       : haseena(1) Tc0 L2 2ch 44.1 224 DELAY 0ms



SINGLE DIRECT FAST LINKS
Code:
https://www.heroupload.com/2194d345aef655ae/Haseena.2018.XVID.Pre-DVDRIP.Mp3.2.0-Team.Jio.Exclusive.avi
Code:
http://filefloater.com/4af/Haseena.2018.XVID.Pre-DVDRIP.Mp3.2.0-Team.Jio.Exclusive.avi