Code:
General
Format                      : MPEG-4
Format profile              : Base Media
Codec ID                    : isom (isom)
File size                   : 1.81 GiB
Duration                    : 2 h 24 min
Overall bit rate mode       : Variable
Overall bit rate            : 1 793 kb/s
Encoded date                : UTC 2018-01-06 09:45:41
Tagged date                 : UTC 2018-01-06 09:45:41

Video
ID                          : 1
Format                      : AVC
Format/Info                 : Advanced Video Codec
Format profile              : High@L3.1
Format settings, CABAC      : Yes
Format settings, RefFrames  : 1 frame
Format settings, GOP        : M=1, N=5
Codec ID                    : avc1
Codec ID/Info               : Advanced Video Coding
Duration                    : 2 h 24 min
Bit rate                    : 1 743 kb/s
Maximum bit rate            : 2 744 kb/s
Width                       : 1 280 pixels
Height                      : 720 pixels
Display aspect ratio        : 16:9
Frame rate mode             : Variable
Frame rate                  : 25.000 FPS
Minimum frame rate          : 15.625 FPS
Maximum frame rate          : 27.778 FPS
Color space                 : YUV
Chroma subsampling          : 4:2:0
Bit depth                   : 8 bits
Scan type                   : Progressive
Bits/(Pixel*Frame)          : 0.076
Stream size                 : 1.75 GiB (97%)
Encoded date                : UTC 2018-01-07 09:32:05
Tagged date                 : UTC 2018-01-06 09:46:48

Audio
ID                          : 2
Format                      : AAC
Format/Info                 : Advanced Audio Codec
Format profile              : HE-AAC / LC
Codec ID                    : 40
Duration                    : 2 h 24 min
Bit rate mode               : Variable
Bit rate                    : 48.0 kb/s
Maximum bit rate            : 52.5 kb/s
Channel(s)                  : 2 channels
Channel positions           : Front: L R
Sampling rate               : 44.1 kHz / 22.05 kHz
Frame rate                  : 21.533 FPS (1024 SPF)
Compression mode            : Lossy
Stream size                 : 49.5 MiB (3%)
Encoded date                : UTC 2018-01-06 09:45:42
Tagged date                 : UTC 2018-01-06 09:46:48




SINGLE DIRECT FAST LINKS
Code:
https://www.heroupload.com/28eeb0f6469e7aa6/Yeto.Vellipoyindhi.Manasu.2012.Telugu.HDTV.720p.x264.UNTOUCHED.AAC-Exclusive.mp4
Code:
http://filefloater.com/4am/Yeto.Vellipoyindhi.Manasu.2012.Telugu.HDTV.720p.x264.UNTOUCHED.AAC-Exclusive.mp4