Code:
General
Format                      : MPEG-4
Format profile              : Base Media
Codec ID                    : isom (isom)
File size                   : 3.63 GiB
Duration                    : 1 h 59 min
Overall bit rate mode       : Variable
Overall bit rate            : 4 347 kb/s
Encoded date                : UTC 2018-01-04 18:15:50
Tagged date                 : UTC 2018-01-04 18:15:50
Writing application         : MkvToMp4 [www.mkvtomp4.ru] version 0.224 (x64)

Video
ID                          : 1
Format                      : AVC
Format/Info                 : Advanced Video Codec
Format profile              : High@L4
Format settings, CABAC      : Yes
Format settings, RefFrames  : 3 frames
Format settings, GOP        : M=4, N=90
Codec ID                    : avc1
Codec ID/Info               : Advanced Video Coding
Duration                    : 1 h 59 min
Source duration             : 1 h 59 min
Bit rate mode               : Constant
Bit rate                    : 4 250 kb/s
Maximum bit rate            : 9 113 kb/s
Width                       : 1 920 pixels
Height                      : 1 080 pixels
Display aspect ratio        : 16:9
Frame rate mode             : Constant
Frame rate                  : 29.970 (30000/1001) FPS
Color space                 : YUV
Chroma subsampling          : 4:2:0
Bit depth                   : 8 bits
Scan type                   : Progressive
Bits/(Pixel*Frame)          : 0.068
Stream size                 : 3.40 GiB (94%)
Source stream size          : 3.55 GiB (98%)
Language                    : English
Tagged date                 : UTC 2018-01-04 18:15:57

Audio
ID                          : 2
Format                      : AAC
Format/Info                 : Advanced Audio Codec
Format profile              : LC
Codec ID                    : 40
Duration                    : 1 h 59 min
Bit rate mode               : Variable
Bit rate                    : 93.4 kb/s
Maximum bit rate            : 100 kb/s
Channel(s)                  : 2 channels
Channel positions           : Front: L R
Sampling rate               : 48.0 kHz
Frame rate                  : 46.875 FPS (1024 SPF)
Compression mode            : Lossy
Stream size                 : 79.8 MiB (2%)
Language                    : English
Default                     : Yes
Alternate group             : 1
Encoded date                : UTC 2018-01-04 18:15:55
Tagged date                 : UTC 2018-01-04 18:15:57



SINGLE DIRECT FAST LINKS
Code:
https://www.heroupload.com/7622a5398af7c376/Ulkuthu.2017.1080p.WEB-HD.AVC.MP4.ESubs.Tamil-MTR.mp4
Code:
http://filefloater.com/9ld/Ulkuthu.2017.1080p.WEB-HD.AVC.MP4.ESubs.Tamil-MTR.mp4
1GB LINKS
Code:
https://www.heroupload.com/60ea57b78b8c18d4/Ulkuthu.2017.1080p.WEB-HD.AVC.MP4.ESubs.Tamil-MTR.part1.rar
https://www.heroupload.com/97707f703a1e678d/Ulkuthu.2017.1080p.WEB-HD.AVC.MP4.ESubs.Tamil-MTR.part2.rar
https://www.heroupload.com/93bd5a3e7a6fa375/Ulkuthu.2017.1080p.WEB-HD.AVC.MP4.ESubs.Tamil-MTR.part3.rar
https://www.heroupload.com/732c756572874d16/Ulkuthu.2017.1080p.WEB-HD.AVC.MP4.ESubs.Tamil-MTR.part4.rar
https://www.heroupload.com/24c64646658b41de/Ulkuthu.2017.1080p.WEB-HD.AVC.MP4.ESubs.Tamil-MTR.srt
Code:
http://filefloater.com/9le/Ulkuthu.2017.1080p.WEB-HD.AVC.MP4.ESubs.Tamil-MTR.part1.rar
http://filefloater.com/9lf/Ulkuthu.2017.1080p.WEB-HD.AVC.MP4.ESubs.Tamil-MTR.part2.rar
http://filefloater.com/9lg/Ulkuthu.2017.1080p.WEB-HD.AVC.MP4.ESubs.Tamil-MTR.part3.rar
http://filefloater.com/9lh/Ulkuthu.2017.1080p.WEB-HD.AVC.MP4.ESubs.Tamil-MTR.part4.rar
http://filefloater.com/9li/Ulkuthu.2017.1080p.WEB-HD.AVC.MP4.ESubs.Tamil-MTR.srt