Code:
General
Format                      : AVI
Format/Info                 : Audio Video Interleave
File size                   : 712 MiB
Duration                    : 1 h 59 min
Overall bit rate            : 833 kb/s

Video
ID                          : 0
Format                      : MPEG-4 Visual
Format profile              : Advanced Simple@L5
Format settings, BVOP       : 2
Format settings, QPel       : No
Format settings, GMC        : No warppoints
Format settings, Matrix     : Default (H.263)
Codec ID                    : XVID
Codec ID/Hint               : XviD
Duration                    : 1 h 59 min
Bit rate                    : 730 kb/s
Width                       : 608 pixels
Height                      : 256 pixels
Display aspect ratio        : 2.40:1
Frame rate                  : 29.970 (30000/1001) FPS
Color space                 : YUV
Chroma subsampling          : 4:2:0
Bit depth                   : 8 bits
Scan type                   : Progressive
Compression mode            : Lossy
Bits/(Pixel*Frame)          : 0.156
Stream size                 : 624 MiB (88%)
Writing library             : XviD 67

Audio
ID                          : 1
Format                      : MPEG Audio
Format version              : Version 1
Format profile              : Layer 3
Mode                        : Joint stereo
Mode extension              : MS Stereo
Codec ID                    : 55
Codec ID/Hint               : MP3
Duration                    : 1 h 59 min
Bit rate mode               : Constant
Bit rate                    : 96.0 kb/s
Channel(s)                  : 2 channels
Sampling rate               : 48.0 kHz
Compression mode            : Lossy
Stream size                 : 82.1 MiB (12%)
Alignment                   : Aligned on interleaves
Interleave, duration        : 133  ms (4.00 video frames)
Interleave, preload duratio : 216  ms
Title                       : Ulkuthu
Writing library             : LAME3.99.5





SINGLE DIRECT FAST LINKS
Code:
https://www.heroupload.com/e06c75f054268ab1/Ulkuthu.2017.HDRip.XviD.MP3.700MB.ESubs.Tamil-MTR.avi
https://www.heroupload.com/33d0abcbcb62309c/Ulkuthu.2017.HDRip.XviD.MP3.700MB.ESubs.Tamil-MTR.srt
Code:
http://filefloater.com/9lj/Ulkuthu.2017.HDRip.XviD.MP3.700MB.ESubs.Tamil-MTR.avi
http://filefloater.com/9lk/Ulkuthu.2017.HDRip.XviD.MP3.700MB.ESubs.Tamil-MTR.srt