Code:
General
Format                      : Matroska
Format version              : Version 4 / Version 2
File size                   : 12.9 GiB
Duration                    : 2 h 7 min
Overall bit rate            : 14.5 Mb/s
Encoded date                : UTC 2018-05-24 09:33:54
Writing application         : mkvmerge v23.0.0 ('The Bride Said No') 64-bit
Writing library             : libebml v1.3.6 + libmatroska v1.4.9 / Lavf57.84.100

Video
ID                          : 1
Format                      : AVC
Format/Info                 : Advanced Video Codec
Format profile              : High@L4
Format settings, CABAC      : Yes
Format settings, RefFrames  : 4 frames
Codec ID                    : V_MPEG4/ISO/AVC
Duration                    : 2 h 7 min
Bit rate                    : 14.0 Mb/s
Nominal bit rate            : 15.0 Mb/s
Width                       : 1 920 pixels
Height                      : 1 080 pixels
Display aspect ratio        : 16:9
Frame rate mode             : Constant
Frame rate                  : 23.976 (24000/1001) FPS
Color space                 : YUV
Chroma subsampling          : 4:2:0
Bit depth                   : 8 bits
Scan type                   : Progressive
Bits/(Pixel*Frame)          : 0.281
Stream size                 : 12.5 GiB (96%)
Writing library             : x264 core 148 r2762 90a61ec
Encoding settings           : cabac=1 / ref=1 / deblock=1:0:0 / analyse=0x3:0x113 / me=hex / subme=2 / psy=1 / psy_rd=1.00:0.00 / mixed_ref=0 / me_range=16 / chroma_me=1 / trellis=0 / 8x8dct=1 / cqm=0 / deadzone=21,11 / fast_pskip=1 / chroma_qp_offset=0 / threads=12 / lookahead_threads=4 / sliced_threads=0 / nr=0 / decimate=1 / interlaced=0 / bluray_compat=0 / constrained_intra=0 / bframes=3 / b_pyramid=2 / b_adapt=1 / b_bias=0 / direct=1 / weightb=1 / open_gop=0 / weightp=1 / keyint=250 / keyint_min=23 / scenecut=40 / intra_refresh=0 / rc_lookahead=10 / rc=cbr / mbtree=1 / bitrate=15000 / ratetol=1.0 / qcomp=0.60 / qpmin=0 / qpmax=69 / qpstep=4 / vbv_maxrate=15000 / vbv_bufsize=15000 / nal_hrd=none / filler=1 / ip_ratio=1.40 / aq=1:1.00
Default                     : Yes
Forced                      : No

Audio
ID                          : 2
Format                      : AAC
Format/Info                 : Advanced Audio Codec
Format profile              : LC
Codec ID                    : A_AAC
Duration                    : 2 h 7 min
Bit rate                    : 529 kb/s
Channel(s)                  : 7 channels
Channel(s)_Original         : 8 channels
Channel positions           : Front: L C R, Side: L R, Back: L R, LFE
Sampling rate               : 48.0 kHz
Frame rate                  : 46.875 FPS (1024 SPF)
Compression mode            : Lossy
Stream size                 : 479 MiB (4%)
Title                       : Track1
Default                     : Yes
Forced                      : No



SINGLE DIRECT FAST LINKS

Code:
http://www.heroupload.us/244e5d73810467db/Hate.Story.4.2018.1080p.WEB-DL.AVC.7.1-Team.Jio.Exclusive.mkv
2GB LINKS

Code:
http://www.heroupload.us/3efe3a82f94e7ecc/Hate.Story.4.2018.1080p.WEB-DL.AVC.7.1-Team.Jio.Exclusive.part1.rar
http://www.heroupload.us/054992556d9c17f0/Hate.Story.4.2018.1080p.WEB-DL.AVC.7.1-Team.Jio.Exclusive.part2.rar
http://www.heroupload.us/13a232ba33bdc524/Hate.Story.4.2018.1080p.WEB-DL.AVC.7.1-Team.Jio.Exclusive.part3.rar
http://www.heroupload.us/a51e90a85a7dbc57/Hate.Story.4.2018.1080p.WEB-DL.AVC.7.1-Team.Jio.Exclusive.part4.rar
http://www.heroupload.us/193ed2e9ed48e7cd/Hate.Story.4.2018.1080p.WEB-DL.AVC.7.1-Team.Jio.Exclusive.part5.rar
http://www.heroupload.us/f3e3a04f74e7c5ce/Hate.Story.4.2018.1080p.WEB-DL.AVC.7.1-Team.Jio.Exclusive.part6.rar
http://www.heroupload.us/adcab78c09442c60/Hate.Story.4.2018.1080p.WEB-DL.AVC.7.1-Team.Jio.Exclusive.part7.rar
Code:
http://filefloater.com/1jdB/Hate.Story.4.2018.1080p.WEB-DL.AVC.7.1-Team.Jio.Exclusive.part1.rar
http://filefloater.com/1jdC/Hate.Story.4.2018.1080p.WEB-DL.AVC.7.1-Team.Jio.Exclusive.part2.rar
http://filefloater.com/1jdD/Hate.Story.4.2018.1080p.WEB-DL.AVC.7.1-Team.Jio.Exclusive.part3.rar
http://filefloater.com/1jdE/Hate.Story.4.2018.1080p.WEB-DL.AVC.7.1-Team.Jio.Exclusive.part4.rar
http://filefloater.com/1jdF/Hate.Story.4.2018.1080p.WEB-DL.AVC.7.1-Team.Jio.Exclusive.part5.rar
http://filefloater.com/1jdG/Hate.Story.4.2018.1080p.WEB-DL.AVC.7.1-Team.Jio.Exclusive.part6.rar
http://filefloater.com/1jdH/Hate.Story.4.2018.1080p.WEB-DL.AVC.7.1-Team.Jio.Exclusive.part7.rar