Code:
General
Format                      : MPEG-4
Codec ID                    : M4V  (isom/avc1/mp42)
File size                   : 4.18 GiB
Duration                    : 1 h 46 min
Overall bit rate mode       : Variable
Overall bit rate            : 5 648 kb/s
Encoded date                : UTC 2018-05-24 12:08:45
Tagged date                 : UTC 2018-05-24 12:08:45

Video
ID                          : 1
Format                      : AVC
Format/Info                 : Advanced Video Codec
Format profile              : Main@L5.1
Format settings, CABAC      : Yes
Format settings, RefFrames  : 3 frames
Codec ID                    : avc1
Codec ID/Info               : Advanced Video Coding
Duration                    : 1 h 46 min
Bit rate mode               : Constant
Bit rate                    : 5 000 kb/s
Maximum bit rate            : 14.4 Mb/s
Width                       : 3 840 pixels
Height                      : 2 160 pixels
Display aspect ratio        : 16:9
Frame rate mode             : Constant
Frame rate                  : 24.000 FPS
Color space                 : YUV
Chroma subsampling          : 4:2:0
Bit depth                   : 8 bits
Scan type                   : Progressive
Bits/(Pixel*Frame)          : 0.025
Stream size                 : 3.70 GiB (89%)
Encoded date                : UTC 2018-05-24 12:08:45
Tagged date                 : UTC 2018-05-24 12:08:45
Color range                 : Limited
Color primaries             : BT.709
Transfer characteristics    : BT.709
Matrix coefficients         : BT.709

Audio #1
ID                          : 2
Format                      : AAC
Format/Info                 : Advanced Audio Codec
Format profile              : LC
Codec ID                    : 40
Duration                    : 1 h 46 min
Bit rate mode               : Variable
Bit rate                    : 128 kb/s
Maximum bit rate            : 133 kb/s
Channel(s)                  : 2 channels
Channel positions           : Front: L R
Sampling rate               : 48.0 kHz
Frame rate                  : 46.875 FPS (1024 SPF)
Compression mode            : Lossy
Stream size                 : 95.1 MiB (2%)
Language                    : English
Encoded date                : UTC 2018-05-24 12:08:45
Tagged date                 : UTC 2018-05-24 12:08:45

Audio #2
ID                          : 3
Format                      : AC-3
Format/Info                 : Audio Coding 3
Format settings, Endianness : Big
Codec ID                    : ac-3
Duration                    : 1 h 46 min
Bit rate mode               : Constant
Bit rate                    : 512 kb/s
Channel(s)                  : 6 channels
Channel positions           : Front: L C R, Side: L R, LFE
Sampling rate               : 48.0 kHz
Frame rate                  : 31.250 FPS (1536 SPF)
Bit depth                   : 16 bits
Compression mode            : Lossy
Stream size                 : 388 MiB (9%)
Language                    : English
Service kind                : Complete Main
Encoded date                : UTC 2018-05-24 12:08:45
Tagged date                 : UTC 2018-05-24 12:08:45



SINGLE DIRECT FAST LINKS
Code:
http://www.heroupload.us/a0918b6039f116e5/Mercury.2018.Ultra-HD.4K.UNTOUCHED.AAC-Exclusive.mp4
Code:
http://filefloater.com/1jdu/Mercury.2018.Ultra-HD.4K.UNTOUCHED.AAC-Exclusive.mp4
1GB LINKS
Code:
http://www.heroupload.us/e37024b5d82d72e1/Mercury.2018.Ultra-HD.4K.UNTOUCHED.AAC-Exclusive.part1.rar
http://www.heroupload.us/5962646c780542f1/Mercury.2018.Ultra-HD.4K.UNTOUCHED.AAC-Exclusive.part2.rar
http://www.heroupload.us/47ae507a3450c867/Mercury.2018.Ultra-HD.4K.UNTOUCHED.AAC-Exclusive.part3.rar
http://www.heroupload.us/54a00e9d98d7b44c/Mercury.2018.Ultra-HD.4K.UNTOUCHED.AAC-Exclusive.part4.rar
http://www.heroupload.us/fd5c409718847bc9/Mercury.2018.Ultra-HD.4K.UNTOUCHED.AAC-Exclusive.part5.rar
Code:
http://filefloater.com/1jdv/Mercury.2018.Ultra-HD.4K.UNTOUCHED.AAC-Exclusive.part1.rar
http://filefloater.com/1jdw/Mercury.2018.Ultra-HD.4K.UNTOUCHED.AAC-Exclusive.part2.rar
http://filefloater.com/1jdx/Mercury.2018.Ultra-HD.4K.UNTOUCHED.AAC-Exclusive.part3.rar
http://filefloater.com/1jdy/Mercury.2018.Ultra-HD.4K.UNTOUCHED.AAC-Exclusive.part4.rar
http://filefloater.com/1jdz/Mercury.2018.Ultra-HD.4K.UNTOUCHED.AAC-Exclusive.part5.rar