Code:
General
Format                      : MPEG-4
Format profile              : Base Media
Codec ID                    : isom (isom/iso2/avc1/mp41)
File size                   : 3.33 GiB
Duration                    : 1 h 44 min
Overall bit rate mode       : Constant
Overall bit rate            : 4 566 kb/s
Writing application         : Lavf57.75.100

Video
ID                          : 1
Format                      : AVC
Format/Info                 : Advanced Video Codec
Format profile              : Main@L4
Format settings, CABAC      : Yes
Format settings, RefFrames  : 1 frame
Format settings, GOP        : M=1, N=25
Codec ID                    : avc1
Codec ID/Info               : Advanced Video Coding
Duration                    : 1 h 44 min
Bit rate mode               : Constant
Bit rate                    : 4 500 kb/s
Width                       : 1 920 pixels
Height                      : 1 080 pixels
Display aspect ratio        : 16:9
Frame rate mode             : Constant
Frame rate                  : 25.000 FPS
Color space                 : YUV
Chroma subsampling          : 4:2:0
Bit depth                   : 8 bits
Scan type                   : Progressive
Bits/(Pixel*Frame)          : 0.087
Stream size                 : 3.28 GiB (99%)

Audio
ID                          : 2
Format                      : AAC
Format/Info                 : Advanced Audio Codec
Format profile              : LC
Codec ID                    : 40
Duration                    : 1 h 44 min
Bit rate mode               : Constant
Bit rate                    : 61.4 kb/s
Channel(s)                  : 2 channels
Channel positions           : Front: L R
Sampling rate               : 48.0 kHz
Frame rate                  : 46.875 FPS (1024 SPF)
Compression mode            : Lossy
Stream size                 : 45.8 MiB (1%)
Default                     : Yes
Alternate group             : 1


SINGLE DIRECT FAST LINKS
Code:
http://www.heroupload.us/a55107a51bb5f306/Kaalakaandi.2018.1080P.UntoucheD.WEB-HD.AVC.AAC-Team.IcTv.Exclusive.mp4
Code:
http://filefloater.com/Tca/Kaalakaandi.2018.1080P.UntoucheD.WEB-HD.AVC.AAC-Team.IcTv.Exclusive.mp4
1GB LINKS
Code:
http://www.heroupload.us/88e1c5153f9cc873/Kaalakaandi.2018.1080P.UntoucheD.WEB-HD.AVC.AAC-Team.IcTv.Exclusive.part1.rar
http://www.heroupload.us/be63dc60b243b578/Kaalakaandi.2018.1080P.UntoucheD.WEB-HD.AVC.AAC-Team.IcTv.Exclusive.part2.rar
http://www.heroupload.us/c7475c95089e9255/Kaalakaandi.2018.1080P.UntoucheD.WEB-HD.AVC.AAC-Team.IcTv.Exclusive.part3.rar
http://www.heroupload.us/8c507b5f9033d1b1/Kaalakaandi.2018.1080P.UntoucheD.WEB-HD.AVC.AAC-Team.IcTv.Exclusive.part4.rar
Code:
http://filefloater.com/Tcb/Kaalakaandi.2018.1080P.UntoucheD.WEB-HD.AVC.AAC-Team.IcTv.Exclusive.part1.rar
http://filefloater.com/Tcc/Kaalakaandi.2018.1080P.UntoucheD.WEB-HD.AVC.AAC-Team.IcTv.Exclusive.part2.rar
http://filefloater.com/Tcd/Kaalakaandi.2018.1080P.UntoucheD.WEB-HD.AVC.AAC-Team.IcTv.Exclusive.part3.rar
http://filefloater.com/Tce/Kaalakaandi.2018.1080P.UntoucheD.WEB-HD.AVC.AAC-Team.IcTv.Exclusive.part4.rar