Code:
General
Format                                   : Matroska
Format version                           : Version 4 / Version 2
File size                                : 1.20 GiB
Duration                                 : 1 h 47 min
Overall bit rate                         : 1 591 kb/s
Movie name                               : Shab---Pasha@Hon3yHD

Video
Format                                   : AVC
Format/Info                              : Advanced Video Codec
Format profile                           : High@L4.1
Format settings, CABAC                   : Yes
Format settings, RefFrames               : 12 frames
Codec ID                                 : V_MPEG4/ISO/AVC
Duration                                 : 1 h 47 min
Bit rate                                 : 1 398 kb/s
Width                                    : 1 280 pixels
Height                                   : 544 pixels
Display aspect ratio                     : 2.35:1
Frame rate mode                          : Constant
Frame rate                               : 23.976 (24000/1001) FPS
Color space                              : YUV
Chroma subsampling                       : 4:2:0
Bit depth                                : 8 bits
Scan type                                : Progressive
Bits/(Pixel*Frame)                       : 0.084
Stream size                              : 1.05 GiB (88%)
Title                                    : Shab---Pasha@Hon3yHD

Audio
Format                                   : AAC
Format/Info                              : Advanced Audio Codec
Format profile                           : LC
Codec ID                                 : A_AAC
Duration                                 : 1 h 47 min
Bit rate                                 : 192 kb/s
Channel(s)                               : 6 channels
Channel positions                        : Front: L C R, Side: L R, LFE
Sampling rate                            : 48.0 kHz
Frame rate                               : 46.875 FPS (1024 SPF)
Compression mode                         : Lossy
Delay relative to video                  : 9 ms
Stream size                              : 148 MiB (12%)
Title                                    : Hindi---Pasha@Hon3yHD
Language                                 : Hindi
Default                                  : Yes

SubTitle
Format                                   : UTF-8
Codec ID                                 : S_TEXT/UTF8
Codec ID/Info                            : UTF-8 Plain Text
Duration                                 : 1 h 41 min
Bit rate                                 : 28 b/s
Count of elements                        : 1098
Stream size                              : 20.9 KiB (0%)
Title                                    : English---Pasha@Hon3yHD
Language                                 : English
Default                                  : Yes

Chapters Menu
00:00:00.000                             : en:Chapter 01
00:04:40.667                             : en:Chapter 02
00:17:45.301                             : en:Chapter 03
00:22:39.835                             : en:Chapter 04
00:26:17.736                             : en:Chapter 05
00:37:57.470                             : en:Chapter 06
00:49:26.837                             : en:Chapter 07
01:03:50.671                             : en:Chapter 08
01:06:04.539                             : en:Chapter 09
01:20:39.240                             : en:Chapter 10
01:22:48.174                             : en:Chapter 11
01:23:31.808                             : en:Chapter 12
01:31:09.509                             : en:Chapter 13
01:33:44.876                             : en:Chapter 14
01:35:24.643                             : en:Chapter 15
01:38:54.643                             : en:Chapter 16
01:45:17.977                             : en:Chapter 17











SINGLE DIRECT FAST LINKS

Code:
http://www.heroupload.com/8be5a8ecce0e80ad/Shab.2017.Hindi.DvDRip.720p.x264.AAC.5.1.ESubs-HHD.mkv