Code:
General
Format                      : MPEG-4
Format profile              : Base Media
Codec ID                    : isom (isom)
File size                   : 4.08 GiB
Duration                    : 2 h 8 min
Overall bit rate mode       : Variable
Overall bit rate            : 4 564 kb/s
Encoded date                : UTC 2017-12-10 12:51:51
Tagged date                 : UTC 2017-12-10 12:51:51
Writing application         : MkvToMp4 [www.mkvtomp4.ru] version 0.224 (x64)

Video
ID                          : 1
Format                      : AVC
Format/Info                 : Advanced Video Codec
Format profile              : Main@L4
Format settings, CABAC      : Yes
Format settings, RefFrames  : 1 frame
Format settings, GOP        : M=1, N=25
Codec ID                    : avc1
Codec ID/Info               : Advanced Video Coding
Duration                    : 2 h 8 min
Bit rate mode               : Constant
Bit rate                    : 4 500 kb/s
Maximum bit rate            : 8 312 kb/s
Width                       : 1 920 pixels
Height                      : 1 080 pixels
Display aspect ratio        : 16:9
Frame rate mode             : Constant
Frame rate                  : 25.000 FPS
Color space                 : YUV
Chroma subsampling          : 4:2:0
Bit depth                   : 8 bits
Scan type                   : Progressive
Bits/(Pixel*Frame)          : 0.087
Stream size                 : 4.03 GiB (99%)
Language                    : English
Tagged date                 : UTC 2017-12-10 12:52:00

Audio
ID                          : 2
Format                      : AAC
Format/Info                 : Advanced Audio Codec
Format profile              : LC
Codec ID                    : 40
Duration                    : 2 h 8 min
Bit rate mode               : Variable
Bit rate                    : 61.4 kb/s
Maximum bit rate            : 72.1 kb/s
Channel(s)                  : 2 channels
Channel positions           : Front: L R
Sampling rate               : 48.0 kHz
Frame rate                  : 46.875 FPS (1024 SPF)
Compression mode            : Lossy
Stream size                 : 56.3 MiB (1%)
Language                    : English
Default                     : Yes
Alternate group             : 1
Encoded date                : UTC 2017-12-10 12:51:57
Tagged date                 : UTC 2017-12-10 12:52:00



SINGLE DIRECT FAST LINKS

Code:
http://www.heroupload.com/bdcdcc3bc0849b7d/Matchbox.2017.Malayalam.1080p.HD.AVC.MP4-MTR.mp4
1GB LINKS


Code:
http://www.heroupload.com/11dac3007ef357b5/Matchbox.2017.Malayalam.1080p.HD.AVC.MP4-MTR.part1.rar
http://www.heroupload.com/b274b8bbbaa0bf54/Matchbox.2017.Malayalam.1080p.HD.AVC.MP4-MTR.part2.rar
http://www.heroupload.com/c93fa88ba6768905/Matchbox.2017.Malayalam.1080p.HD.AVC.MP4-MTR.part3.rar
http://www.heroupload.com/b85d733abe496729/Matchbox.2017.Malayalam.1080p.HD.AVC.MP4-MTR.part4.rar
http://www.heroupload.com/bbcfdd045496d3fe/Matchbox.2017.Malayalam.1080p.HD.AVC.MP4-MTR.part5.rar