Code:
General
Format                      : MPEG-4
Format profile              : Base Media
Codec ID                    : isom (isom)
File size                   : 1.85 GiB
Duration                    : 2 h 8 min
Overall bit rate mode       : Variable
Overall bit rate            : 2 064 kb/s
Encoded date                : UTC 2017-12-10 12:56:37
Tagged date                 : UTC 2017-12-10 12:56:37
Writing application         : MkvToMp4 [www.mkvtomp4.ru] version 0.224 (x64)

Video
ID                          : 1
Format                      : AVC
Format/Info                 : Advanced Video Codec
Format profile              : Main@L3.1
Format settings, CABAC      : Yes
Format settings, RefFrames  : 1 frame
Format settings, GOP        : M=1, N=25
Codec ID                    : avc1
Codec ID/Info               : Advanced Video Coding
Duration                    : 2 h 8 min
Bit rate mode               : Constant
Bit rate                    : 2 000 kb/s
Maximum bit rate            : 3 879 kb/s
Width                       : 1 280 pixels
Height                      : 720 pixels
Display aspect ratio        : 16:9
Frame rate mode             : Constant
Frame rate                  : 25.000 FPS
Color space                 : YUV
Chroma subsampling          : 4:2:0
Bit depth                   : 8 bits
Scan type                   : Progressive
Bits/(Pixel*Frame)          : 0.087
Stream size                 : 1.79 GiB (97%)
Language                    : English
Tagged date                 : UTC 2017-12-10 12:56:43

Audio
ID                          : 2
Format                      : AAC
Format/Info                 : Advanced Audio Codec
Format profile              : LC
Codec ID                    : 40
Duration                    : 2 h 8 min
Bit rate mode               : Variable
Bit rate                    : 61.4 kb/s
Maximum bit rate            : 72.1 kb/s
Channel(s)                  : 2 channels
Channel positions           : Front: L R
Sampling rate               : 48.0 kHz
Frame rate                  : 46.875 FPS (1024 SPF)
Compression mode            : Lossy
Stream size                 : 56.3 MiB (3%)
Language                    : English
Default                     : Yes
Alternate group             : 1
Encoded date                : UTC 2017-12-10 12:56:41
Tagged date                 : UTC 2017-12-10 12:56:43




SINGLE DIRECT FAST LINKS

Code:
http://www.heroupload.com/65759e965e1e3300/Matchbox.2017.Malayalam.720p.HD.AVC.MP4-MTR.mp4