Code:
General
Format                      : AVI
Format/Info                 : Audio Video Interleave
File size                   : 697 MiB
Duration                    : 2 h 0 min
Overall bit rate mode       : Variable
Overall bit rate            : 810 kb/s

Video
ID                          : 0
Format                      : MPEG-4 Visual
Format profile              : Advanced Simple@L5
Format settings, BVOP       : 2
Format settings, QPel       : No
Format settings, GMC        : No warppoints
Format settings, Matrix     : Default (H.263)
Codec ID                    : XVID
Codec ID/Hint               : XviD
Duration                    : 2 h 0 min
Bit rate                    : 702 kb/s
Width                       : 704 pixels
Height                      : 296 pixels
Display aspect ratio        : 2.40:1
Frame rate                  : 24.190 FPS
Color space                 : YUV
Chroma subsampling          : 4:2:0
Bit depth                   : 8 bits
Scan type                   : Progressive
Compression mode            : Lossy
Bits/(Pixel*Frame)          : 0.139
Stream size                 : 604 MiB (87%)
Writing library             : XviD 67

Audio
ID                          : 1
Format                      : MPEG Audio
Format version              : Version 1
Format profile              : Layer 3
Mode                        : Joint stereo
Mode extension              : MS Stereo
Codec ID                    : 55
Codec ID/Hint               : MP3
Duration                    : 2 h 0 min
Bit rate mode               : Variable
Bit rate                    : 96.0 kb/s
Channel(s)                  : 2 channels
Sampling rate               : 44.1 kHz
Compression mode            : Lossy
Stream size                 : 82.3 MiB (12%)
Alignment                   : Aligned on interleaves
Interleave, duration        : 26  ms (0.63 video frame)
Interleave, preload duratio : 87  ms
Writing library             : LAME3.99r
Encoding settings           : -m j -V 4 -q 3 -lowpass 15.1 --abr 96

Text
ID                          : 2
Format                      : SubRip
Duration                    : 2 h 0 min
Bit rate                    : 182 b/s
Compression mode            : Lossless
Stream size                 : 160 KiB (0%)

SINGLE DIRECT FAST LINKS

Code:
http://www.heroupload.com/94d21c22a721eac3/Chunkzz.2017.Malayalam.Original.v2.DVDRip.XviD.700MB.MP3.ESub-TMV.avi