Code:
General
Format                      : Matroska
Format version              : Version 4 / Version 2
File size                   : 2.56 GiB
Duration                    : 1 h 43 min
Overall bit rate            : 3 522 kb/s
Encoded date                : UTC 2017-12-03 08:13:09
Writing application         : mkvmerge v17.0.0 ('Be Ur Friend') 64-bit
Writing library             : libebml v1.3.5 + libmatroska v1.4.8

Video
ID                          : 1
Format                      : AVC
Format/Info                 : Advanced Video Codec
Format profile              : High@L4.2
Format settings, CABAC      : Yes
Format settings, RefFrames  : 4 frames
Codec ID                    : V_MPEG4/ISO/AVC
Duration                    : 1 h 43 min
Bit rate                    : 3 329 kb/s
Width                       : 1 920 pixels
Height                      : 1 080 pixels
Display aspect ratio        : 16:9
Frame rate mode             : Constant
Frame rate                  : 59.940 (60000/1001) FPS
Color space                 : YUV
Chroma subsampling          : 4:2:0
Bit depth                   : 8 bits
Scan type                   : Progressive
Bits/(Pixel*Frame)          : 0.027
Stream size                 : 2.41 GiB (94%)
Writing library             : x264 core 152 r2851 ba24899
Encoding settings           : cabac=1 / ref=3 / deblock=1:0:0 / analyse=0x3:0x113 / me=hex / subme=7 / psy=1 / psy_rd=1.00:0.00 / mixed_ref=1 / me_range=16 / chroma_me=1 / trellis=1 / 8x8dct=1 / cqm=0 / deadzone=21,11 / fast_pskip=1 / chroma_qp_offset=-2 / threads=12 / lookahead_threads=2 / sliced_threads=0 / nr=0 / decimate=1 / interlaced=0 / bluray_compat=0 / constrained_intra=0 / bframes=3 / b_pyramid=2 / b_adapt=1 / b_bias=0 / direct=1 / weightb=1 / open_gop=0 / weightp=2 / keyint=599 / keyint_min=59 / scenecut=40 / intra_refresh=0 / rc_lookahead=40 / rc=2pass / mbtree=1 / bitrate=3329 / ratetol=1.0 / qcomp=0.60 / qpmin=0 / qpmax=69 / qpstep=4 / cplxblur=20.0 / qblur=0.5 / ip_ratio=1.40 / aq=1:1.00
Default                     : Yes
Forced                      : No

Audio
ID                          : 2
Format                      : MPEG Audio
Format version              : Version 1
Format profile              : Layer 3
Mode                        : Joint stereo
Codec ID                    : A_MPEG/L3
Codec ID/Hint               : MP3
Duration                    : 1 h 43 min
Bit rate mode               : Constant
Bit rate                    : 192 kb/s
Channel(s)                  : 2 channels
Sampling rate               : 48.0 kHz
Frame rate                  : 41.667 FPS (1152 SPF)
Compression mode            : Lossy
Stream size                 : 143 MiB (5%)
Language                    : English
Default                     : Yes
Forced                      : No


SINGLE DIRECT FAST LINKS

Code:
http://www.heroupload.com/b73288b8e2b9fa66/English.Padam.2017.1080p.HD.AVC.AAC.ESubs.Tamil-MTR.mkv
700MB LINKS

Code:
http://www.heroupload.com/ed30bc7c8d74b8e9/English.Padam.2017.1080p.HD.AVC.AAC.ESubs.Tamil-MTR.part1.rar
http://www.heroupload.com/1c37de5044021977/English.Padam.2017.1080p.HD.AVC.AAC.ESubs.Tamil-MTR.part2.rar
http://www.heroupload.com/c95c729e1d751394/English.Padam.2017.1080p.HD.AVC.AAC.ESubs.Tamil-MTR.part3.rar
http://www.heroupload.com/1fb6e127e6c5ddd6/English.Padam.2017.1080p.HD.AVC.AAC.ESubs.Tamil-MTR.part4.rar