Code:
http://imdb.com/title/tt5109784/

Video
ID                                       : 1
Format                                   : AVC
Format/Info                              : Advanced Video Codec
Format profile                           : High@L4
Format settings                          : CABAC / 5 Ref Frames
Format settings, CABAC                   : Yes
Format settings, ReFrames                : 5 frames
Codec ID                                 : V_MPEG4/ISO/AVC
Duration                                 : 2 h 1 min
Bit rate                                 : 4 490 kb/s
Width                                    : 1 920 pixels
Height                                   : 804 pixels
Display aspect ratio                     : 2.40:1
Frame rate mode                          : Constant
Frame rate                               : 23.976 (24000/1001) FPS
Color space                              : YUV
Chroma subsampling                       : 4:2:0
Bit depth                                : 8 bits
Scan type                                : Progressive
Bits/(Pixel*Frame)                       : 0.121
Stream size                              : 3.81 GiB (90%)
Title                                    : Mother.2017.1080p.WEB-DL.DD5.1.H264-FGT
Language                                 : English
Default                                  : Yes
Forced                                   : No
Color range                              : Limited
Color primaries                          : BT.709
Transfer characteristics                 : BT.709
Matrix coefficients                      : BT.709

Audio
ID                                       : 2
Format                                   : AC-3
Format/Info                              : Audio Coding 3
Codec ID                                 : A_AC3
Duration                                 : 2 h 1 min
Bit rate mode                            : Constant
Bit rate                                 : 384 kb/s
Channel(s)                               : 6 channels
Channel positions                        : Front: L C R, Side: L R, LFE
Sampling rate                            : 48.0 kHz
Frame rate                               : 31.250 FPS (1536 SPF)
Bit depth                                : 16 bits
Compression mode                         : Lossy
Delay relative to video                  : -43 ms
Stream size                              : 334 MiB (8%)
Title                                    : Mother.2017.1080p.WEB-DL.DD5.1.H264-FGT
Language                                 : English
Service kind                             : Complete Main
Default                                  : Yes
Forced                                   : No

Text
ID                                       : 3
Format                                   : UTF-8
Codec ID                                 : S_TEXT/UTF8
Codec ID/Info                            : UTF-8 Plain Text
Language                                 : English
Default                                  : Yes
Forced                                   : No

Menu
00:00:00.000                             : en:1
00:06:21.000                             : en:2
00:10:19.000                             : en:3
00:15:57.000                             : en:4
00:21:35.000                             : en:5
00:24:57.000                             : en:6
00:31:28.000                             : en:7
00:38:26.000                             : en:8
00:44:53.000                             : en:9
00:49:31.000                             : en:10
00:53:39.000                             : en:11
01:02:15.000                             : en:12
01:08:19.000                             : en:13
01:16:46.000                             : en:14
01:20:25.000                             : en:15
01:28:20.000                             : en:16
01:38:02.000                             : en:17
01:45:45.000                             : en:18
01:49:41.000                             : en:19
01:56:13.000                             : en:20






SINGLE DIRECT FAST LINKS

Code:
http://www.heroupload.com/1ef4d8b46c9a3324/Mother.2017.1080p.WEB-DL.DD5.1.H264-FGT.mkv
1GB LINKS

Code:
http://www.heroupload.com/757e1647c1b71d55/Mother.2017.1080p.WEB-DL.DD5.1.H264-FGT.part1.rar
http://www.heroupload.com/02b18fce26ec1dc2/Mother.2017.1080p.WEB-DL.DD5.1.H264-FGT.part2.rar
http://www.heroupload.com/1de81268253233fa/Mother.2017.1080p.WEB-DL.DD5.1.H264-FGT.part3.rar
http://www.heroupload.com/c66f175b174e5aab/Mother.2017.1080p.WEB-DL.DD5.1.H264-FGT.part4.rar
http://www.heroupload.com/05555e85d92f1f36/Mother.2017.1080p.WEB-DL.DD5.1.H264-FGT.part5.rar