Code:
http://imdb.com/title/tt6045466/

Video
ID                                       : 1
Format                                   : AVC
Format/Info                              : Advanced Video Codec
Format profile                           : High@L4
Format settings                          : CABAC / 5 Ref Frames
Format settings, CABAC                   : Yes
Format settings, ReFrames                : 5 frames
Codec ID                                 : V_MPEG4/ISO/AVC
Duration                                 : 1 h 31 min
Bit rate                                 : 4 472 kb/s
Width                                    : 1 920 pixels
Height                                   : 804 pixels
Display aspect ratio                     : 2.40:1
Frame rate mode                          : Constant
Frame rate                               : 24.000 FPS
Color space                              : YUV
Chroma subsampling                       : 4:2:0
Bit depth                                : 8 bits
Scan type                                : Progressive
Bits/(Pixel*Frame)                       : 0.121
Stream size                              : 2.85 GiB (94%)
Title                                    : Madame.2017.1080p.WEB-DL.DD2.0.H264-FGT
Language                                 : English
Default                                  : Yes
Forced                                   : No
Color range                              : Limited
Color primaries                          : BT.709
Transfer characteristics                 : BT.709
Matrix coefficients                      : BT.709

Audio
ID                                       : 2
Format                                   : AC-3
Format/Info                              : Audio Coding 3
Codec ID                                 : A_AC3
Duration                                 : 1 h 31 min
Bit rate mode                            : Constant
Bit rate                                 : 192 kb/s
Channel(s)                               : 2 channels
Channel positions                        : Front: L R
Sampling rate                            : 48.0 kHz
Frame rate                               : 31.250 FPS (1536 SPF)
Bit depth                                : 16 bits
Compression mode                         : Lossy
Stream size                              : 125 MiB (4%)
Title                                    : Madame.2017.1080p.WEB-DL.DD2.0.H264-FGT
Language                                 : English
Service kind                             : Complete Main
Default                                  : Yes
Forced                                   : No






SINGLE DIRECT FAST LINKS

Code:
http://www.heroupload.com/da482dc755168aaf/Madame.2017.1080p.WEB-DL.DD5.1.H264-FGT.mkv
1GB LINKS

Code:
http://www.heroupload.com/1c17a22ab031cd86/Madame.2017.1080p.WEB-DL.DD5.1.H264-FGT.part1.rar
http://www.heroupload.com/088a8aabf61dbf2c/Madame.2017.1080p.WEB-DL.DD5.1.H264-FGT.part2.rar
http://www.heroupload.com/52c89f73de0a5ea0/Madame.2017.1080p.WEB-DL.DD5.1.H264-FGT.part3.rar
http://www.heroupload.com/0091e3590703d086/Madame.2017.1080p.WEB-DL.DD5.1.H264-FGT.part4.rar