Code:
http://imdb.com/title/tt3605266/

Video
ID                                       : 1
Format                                   : AVC
Format/Info                              : Advanced Video Codec
Format profile                           : High@L3.1
Format settings                          : 2 Ref Frames
Format settings, CABAC                   : No
Format settings, ReFrames                : 2 frames
Codec ID                                 : V_MPEG4/ISO/AVC
Duration                                 : 1 h 31 min
Bit rate                                 : 3 973 kb/s
Width                                    : 1 280 pixels
Height                                   : 720 pixels
Display aspect ratio                     : 16:9
Frame rate mode                          : Constant
Frame rate                               : 23.976 (24000/1001) FPS
Color space                              : YUV
Chroma subsampling                       : 4:2:0
Bit depth                                : 8 bits
Scan type                                : Progressive
Bits/(Pixel*Frame)                       : 0.180
Stream size                              : 2.53 GiB (89%)
Title                                    : Everything.Beautiful.Is.Far.Away.2017.1080p.WEB-DL.DD5.1.H264-FGT
Language                                 : English
Default                                  : Yes
Forced                                   : No
Color range                              : Limited
Color primaries                          : BT.709
Transfer characteristics                 : BT.709
Matrix coefficients                      : BT.709

Audio
ID                                       : 2
Format                                   : AC-3
Format/Info                              : Audio Coding 3
Codec ID                                 : A_AC3
Duration                                 : 1 h 31 min
Bit rate mode                            : Constant
Bit rate                                 : 384 kb/s
Channel(s)                               : 6 channels
Channel positions                        : Front: L C R, Side: L R, LFE
Sampling rate                            : 48.0 kHz
Frame rate                               : 31.250 FPS (1536 SPF)
Bit depth                                : 16 bits
Compression mode                         : Lossy
Delay relative to video                  : -42 ms
Stream size                              : 250 MiB (9%)
Title                                    : Everything.Beautiful.Is.Far.Away.2017.1080p.WEB-DL.DD5.1.H264-FGT
Language                                 : English
Service kind                             : Complete Main
Default                                  : Yes
Forced                                   : No

Menu
00:00:00.000                             : en:Chapter One
00:15:00.000                             : en:Chapter Two
00:30:00.000                             : en:Chapter Three
00:45:00.000                             : en:Chapter Four
01:00:00.000                             : en:Chapter Five
01:15:00.000                             : en:Chapter Six










SINGLE DIRECT FAST LINKS

Code:
http://www.heroupload.com/44a51cf2c1279dcb/Everything.Beautiful.Is.Far.Away.2017.1080p.WEB-DL.DD5.1.H264-FGT.mkv
1GB LINKS

Code:
http://www.heroupload.com/75d04632fa171863/Everything.Beautiful.Is.Far.Away.2017.1080p.WEB-DL.DD5.1.H264-FGT.part1.rar
http://www.heroupload.com/8ac38475fdade772/Everything.Beautiful.Is.Far.Away.2017.1080p.WEB-DL.DD5.1.H264-FGT.part2.rar
http://www.heroupload.com/a0fc92fe122dc055/Everything.Beautiful.Is.Far.Away.2017.1080p.WEB-DL.DD5.1.H264-FGT.part3.rar