Code:
General
Format                      : AVI
Format/Info                 : Audio Video Interleave
File size                   : 697 MiB
Duration                    : 2 h 27 min
Overall bit rate mode       : Variable
Overall bit rate            : 660 kb/s

Video
ID                          : 0
Format                      : MPEG-4 Visual
Format profile              : Advanced Simple@L5
Format settings, BVOP       : 2
Format settings, QPel       : No
Format settings, GMC        : No warppoints
Format settings, Matrix     : Default (H.263)
Codec ID                    : XVID
Codec ID/Hint               : XviD
Duration                    : 2 h 27 min
Bit rate                    : 550 kb/s
Width                       : 704 pixels
Height                      : 296 pixels
Display aspect ratio        : 2.40:1
Frame rate                  : 15.000 FPS
Color space                 : YUV
Chroma subsampling          : 4:2:0
Bit depth                   : 8 bits
Scan type                   : Progressive
Compression mode            : Lossy
Bits/(Pixel*Frame)          : 0.176
Stream size                 : 581 MiB (83%)
Writing library             : XviD 67

Audio
ID                          : 1
Format                      : MPEG Audio
Format version              : Version 1
Format profile              : Layer 3
Mode                        : Joint stereo
Mode extension              : MS Stereo
Codec ID                    : 55
Codec ID/Hint               : MP3
Duration                    : 2 h 27 min
Bit rate mode               : Variable
Bit rate                    : 96.0 kb/s
Channel(s)                  : 2 channels
Sampling rate               : 48.0 kHz
Compression mode            : Lossy
Stream size                 : 105 MiB (15%)
Alignment                   : Aligned on interleaves
Interleave, duration        : 24  ms (0.36 video frame)
Interleave, preload duratio : 150  ms
Writing library             : LAME3.99r
Encoding settings           : -m j -V 4 -q 3 -lowpass 15.1 --abr 96



SINGLE DIRECT FAST LINKS

Code:
http://www.heroupload.com/7ab44013efc93422/Nene.Raju.Nene.Mantri.2017..XviD.700MB.Line.Aud.MP3-TMV.avi
Code:
http://filefloater.com/tq/Nene.Raju.Nene.Mantri.2017..XviD.700MB.Line.Aud.MP3-TMV.avi