Code:
General
Format                      : Matroska
Format version              : Version 4 / Version 2
File size                   : 2.32 GiB
Duration                    : 2 h 29 min
Overall bit rate            : 2 226 kb/s
Encoded date                : UTC 2017-08-11 14:43:19
Writing application         : mkvmerge v14.0.0 ('Flow') 64bit
Writing library             : libebml v1.3.4 + libmatroska v1.4.5 / Lavf55.12.0

Video
ID                          : 1
Format                      : AVC
Format/Info                 : Advanced Video Codec
Format profile              : Main@L4
Format settings, CABAC      : Yes
Format settings, ReFrames   : 4 frames
Codec ID                    : V_MPEG4/ISO/AVC
Duration                    : 2 h 29 min
Bit rate                    : 2 000 kb/s
Width                       : 1 280 pixels
Height                      : 576 pixels
Display aspect ratio        : 2.222
Frame rate mode             : Variable
Frame rate                  : 24.543 FPS
Color space                 : YUV
Chroma subsampling          : 4:2:0
Bit depth                   : 8 bits
Scan type                   : Progressive
Bits/(Pixel*Frame)          : 0.111
Stream size                 : 2.08 GiB (90%)
Writing library             : x264 core 142 r2479 dd79a61
Encoding settings           : cabac=1 / ref=1 / deblock=1:0:0 / analyse=0x1:0x111 / me=hex / subme=2 / psy=1 / psy_rd=1.00:0.00 / mixed_ref=0 / me_range=16 / chroma_me=1 / trellis=0 / 8x8dct=0 / cqm=0 / deadzone=21,11 / fast_pskip=1 / chroma_qp_offset=0 / threads=6 / lookahead_threads=2 / sliced_threads=0 / nr=0 / decimate=1 / interlaced=0 / bluray_compat=0 / constrained_intra=0 / bframes=3 / b_pyramid=2 / b_adapt=1 / b_bias=0 / direct=1 / weightb=1 / open_gop=0 / weightp=1 / keyint=240 / keyint_min=24 / scenecut=40 / intra_refresh=0 / rc_lookahead=10 / rc=abr / mbtree=1 / bitrate=2000 / ratetol=1.0 / qcomp=0.60 / qpmin=0 / qpmax=69 / qpstep=4 / vbv_maxrate=20000 / vbv_bufsize=25000 / nal_hrd=none / filler=0 / ip_ratio=1.40 / aq=1:1.00
Default                     : Yes
Forced                      : No
Color range                 : Limited
Color primaries             : BT.709
Transfer characteristics    : BT.709
Matrix coefficients         : BT.709

Audio
ID                          : 2
Format                      : AC-3
Format/Info                 : Audio Coding 3
Format settings, Endianness : Big
Codec ID                    : A_AC3
Duration                    : 2 h 29 min
Bit rate mode               : Constant
Bit rate                    : 224 kb/s
Channel(s)                  : 2 channels
Channel positions           : Front: L R
Sampling rate               : 48.0 kHz
Frame rate                  : 31.250 FPS (1536 spf)
Bit depth                   : 16 bits
Compression mode            : Lossy
Delay relative to video     : -5 ms
Stream size                 : 239 MiB (10%)
Title                       : Stereo
Service kind                : Complete Main
Default                     : Yes
Forced                      : No





SINGLE DIRECT FAST LINKS
Code:
http://www.heroupload.com/29ae9c69071dcbe2/Toilet.Ek.Prem.Katha.2017.Hindi.Pre-DVD.Untouched.720p-M2Tv.ExclusivE.mkv
Code:
http://filefloater.com/J5/Toilet.Ek.Prem.Katha.2017.Hindi.Pre-DVD.Untouched.720p-M2Tv.ExclusivE.mkv
700MB LINKS
Code:
http://www.heroupload.com/2e18047ca2f4604c/Toilet.Ek.Prem.Katha.2017.Hindi.Pre-DVD.Untouched.720p-M2Tv.ExclusivE.part1.rar
http://www.heroupload.com/115867593394ea16/Toilet.Ek.Prem.Katha.2017.Hindi.Pre-DVD.Untouched.720p-M2Tv.ExclusivE.part2.rar
http://www.heroupload.com/468c1d5c716cd242/Toilet.Ek.Prem.Katha.2017.Hindi.Pre-DVD.Untouched.720p-M2Tv.ExclusivE.part3.rar
http://www.heroupload.com/d9270c9c30c3a19d/Toilet.Ek.Prem.Katha.2017.Hindi.Pre-DVD.Untouched.720p-M2Tv.ExclusivE.part4.rar
Code:
http://filefloater.com/J4/Toilet.Ek.Prem.Katha.2017.Hindi.Pre-DVD.Untouched.720p-M2Tv.ExclusivE.part1.rar
http://filefloater.com/J3/Toilet.Ek.Prem.Katha.2017.Hindi.Pre-DVD.Untouched.720p-M2Tv.ExclusivE.part2.rar
http://filefloater.com/J2/Toilet.Ek.Prem.Katha.2017.Hindi.Pre-DVD.Untouched.720p-M2Tv.ExclusivE.part3.rar
http://filefloater.com/J1/Toilet.Ek.Prem.Katha.2017.Hindi.Pre-DVD.Untouched.720p-M2Tv.ExclusivE.part4.rar