Code:
Format                                   : MPEG-4
Format profile                           : Base Media
Codec ID                                 : isom (isom)
File size                                : 2.00 GiB
Duration                                 : 2 h 5 min
Overall bit rate mode                    : Variable
Overall bit rate                         : 2 290 kb/s


Video
ID                                       : 1
Format                                   : AVC
Format/Info                              : Advanced Video Codec
Format profile                           : Main@L3.1
Format settings, CABAC                   : Yes
Format settings, ReFrames                : 4 frames
Codec ID                                 : avc1
Codec ID/Info                            : Advanced Video Coding
Duration                                 : 2 h 5 min
Bit rate                                 : 2 048 kb/s
Maximum bit rate                         : 3 667 kb/s
Width                                    : 1 280 pixels
Height                                   : 720 pixels
Display aspect ratio                     : 16:9
Frame rate mode                          : Constant
Frame rate                               : 25.000 FPS
Color space                              : YUV
Chroma subsampling                       : 4:2:0
Bit depth                                : 8 bits
Scan type                                : Progressive
Bits/(Pixel*Frame)                       : 0.089
Stream size                              : 1.72 GiB (86%)


Audio
ID                                       : 2
Format                                   : AAC
Format/Info                              : Advanced Audio Codec
Format profile                           : LC
Codec ID                                 : 40
Duration                                 : 2 h 5 min
Bit rate mode                            : Variable
Bit rate                                 : 324 kb/s
Maximum bit rate                         : 571 kb/s
Channel(s)                               : 2 channels
Channel(s)_Original                      : 6 channels
Channel positions                        : Front: L C R, Side: L R, LFE
Sampling rate                            : 48.0 kHz
Frame rate                               : 46.875 FPS (1024 spf)
Compression mode                         : Lossy
Stream size                              : 290 MiB (14%)
Language                                 : English
Default                                  : Yes








SINGLE DIRECT FAST LINKS

Code:
http://www.heroupload.com/f019e39bda0bed2b/Gemini.Ganeshanum.Suruli.Raajanum.2017.720p.v2.HD.5.1.AVC.ESubs.Tamil-MTR.mp4
Code:
http://filefloater.com/s0/Gemini.Ganeshanum.Suruli.Raajanum.2017.720p.v2.HD.5.1.AVC.ESubs.Tamil-MTR.mp4
700MB LINKS

Code:
http://www.heroupload.com/9efa0e97e6a662e1/Gemini.Ganeshanum.Suruli.Raajanum.2017.720p.v2.HD.5.1.AVC.ESubs.Tamil-MTR.part1.rar
http://www.heroupload.com/67ff0eb984d208d6/Gemini.Ganeshanum.Suruli.Raajanum.2017.720p.v2.HD.5.1.AVC.ESubs.Tamil-MTR.part2.rar
http://www.heroupload.com/2b21d608cd0171bb/Gemini.Ganeshanum.Suruli.Raajanum.2017.720p.v2.HD.5.1.AVC.ESubs.Tamil-MTR.part3.rar
http://www.heroupload.com/4621c580646e2193/Gemini.Ganeshanum.Suruli.Raajanum.2017.720p.v2.HD.5.1.AVC.ESubs.Tamil-MTR.srt
Code:
http://filefloater.com/s1/Gemini.Ganeshanum.Suruli.Raajanum.2017.720p.v2.HD.5.1.AVC.ESubs.Tamil-MTR.part1.rar
http://filefloater.com/s2/Gemini.Ganeshanum.Suruli.Raajanum.2017.720p.v2.HD.5.1.AVC.ESubs.Tamil-MTR.part2.rar
http://filefloater.com/s3/Gemini.Ganeshanum.Suruli.Raajanum.2017.720p.v2.HD.5.1.AVC.ESubs.Tamil-MTR.part3.rar
http://filefloater.com/s4/Gemini.Ganeshanum.Suruli.Raajanum.2017.720p.v2.HD.5.1.AVC.ESubs.Tamil-MTR.srt