Code:
http://imdb.com/title/tt0491203/

Video
ID                                       : 1
Format                                   : AVC
Format/Info                              : Advanced Video Codec
Format profile                           : High@L4
Format settings                          : CABAC / 5 Ref Frames
Format settings, CABAC                   : Yes
Format settings, ReFrames                : 5 frames
Codec ID                                 : V_MPEG4/ISO/AVC
Duration                                 : 1 h 44 min
Bit rate                                 : 4 461 kb/s
Width                                    : 1 920 pixels
Height                                   : 802 pixels
Display aspect ratio                     : 2.40:1
Frame rate mode                          : Constant
Frame rate                               : 24.000 FPS
Color space                              : YUV
Chroma subsampling                       : 4:2:0
Bit depth                                : 8 bits
Scan type                                : Progressive
Bits/(Pixel*Frame)                       : 0.121
Stream size                              : 3.27 GiB (90%)
Title                                    : Tulip.Fever.2017.1080p.WEB-DL.DD5.1.H264-FGT
Language                                 : English
Default                                  : Yes
Forced                                   : No
Color range                              : Limited
Color primaries                          : BT.709
Transfer characteristics                 : BT.709
Matrix coefficients                      : BT.709

Audio
ID                                       : 2
Format                                   : AC-3
Format/Info                              : Audio Coding 3
Codec ID                                 : A_AC3
Duration                                 : 1 h 44 min
Bit rate mode                            : Constant
Bit rate                                 : 384 kb/s
Channel(s)                               : 6 channels
Channel positions                        : Front: L C R, Side: L R, LFE
Sampling rate                            : 48.0 kHz
Frame rate                               : 31.250 FPS (1536 SPF)
Bit depth                                : 16 bits
Compression mode                         : Lossy
Stream size                              : 288 MiB (8%)
Title                                    : Tulip.Fever.2017.1080p.WEB-DL.DD5.1.H264-FGT
Language                                 : English
Service kind                             : Complete Main
Default                                  : Yes
Forced                                   : No

Menu
00:00:00.000                             : en:1
00:15:00.000                             : en:2
00:30:00.000                             : en:3
00:45:00.000                             : en:4
01:00:00.000                             : en:5
01:15:00.000                             : en:6
01:30:00.000                             : en:7
01:37:25.000                             : en:8




SINGLE DIRECT FAST LINKS
Code:
http://www.heroupload.com/b3292f740f94c6e7/Tulip.Fever.2017.1080p.WEB-DL.DD5.1.H264-FGT.mkv
Code:
http://filefloater.com/9ea/Tulip.Fever.2017.1080p.WEB-DL.DD5.1.H264-FGT.mkv
1GB LINKS
Code:
http://www.heroupload.com/b62978293f9ac2c6/Tulip.Fever.2017.1080p.WEB-DL.DD5.1.H264-FGT.part1.rar
http://www.heroupload.com/dd60a65bff44bde7/Tulip.Fever.2017.1080p.WEB-DL.DD5.1.H264-FGT.part2.rar
http://www.heroupload.com/8367be8aa29ff787/Tulip.Fever.2017.1080p.WEB-DL.DD5.1.H264-FGT.part3.rar
http://www.heroupload.com/7309b0fbe647e857/Tulip.Fever.2017.1080p.WEB-DL.DD5.1.H264-FGT.part4.rar
Code:
http://filefloater.com/9eb/Tulip.Fever.2017.1080p.WEB-DL.DD5.1.H264-FGT.part1.rar
http://filefloater.com/9ec/Tulip.Fever.2017.1080p.WEB-DL.DD5.1.H264-FGT.part2.rar
http://filefloater.com/9ed/Tulip.Fever.2017.1080p.WEB-DL.DD5.1.H264-FGT.part3.rar
http://filefloater.com/9ee/Tulip.Fever.2017.1080p.WEB-DL.DD5.1.H264-FGT.part4.rar