Code:
General
Format                      : Matroska
Format version              : Version 4 / Version 2
File size                   : 2.44 GiB
Duration                    : 1 h 54 min
Overall bit rate            : 3 052 kb/s
Encoded date                : UTC 2017-11-11 18:43:24
Writing application         : mkvmerge v7.0.0 ('Where We Going') 32bit built on Jun  9 2014 15:08:34
Writing library             : libebml v1.3.0 + libmatroska v1.4.1

Video
ID                          : 1
Format                      : AVC
Format/Info                 : Advanced Video Codec
Format profile              : High@L4
Format settings, CABAC      : Yes
Format settings, RefFrames  : 4 frames
Codec ID                    : V_MPEG4/ISO/AVC
Duration                    : 1 h 54 min
Bit rate                    : 2 890 kb/s
Width                       : 1 920 pixels
Height                      : 816 pixels
Display aspect ratio        : 2.35:1
Frame rate mode             : Constant
Frame rate                  : 25.000 FPS
Color space                 : YUV
Chroma subsampling          : 4:2:0
Bit depth                   : 8 bits
Scan type                   : Progressive
Bits/(Pixel*Frame)          : 0.074
Stream size                 : 2.31 GiB (95%)
Writing library             : x264 core 148 r2744 b97ae06
Encoding settings           : cabac=1 / ref=3 / deblock=1:0:0 / analyse=0x3:0x113 / me=hex / subme=7 / psy=1 / psy_rd=1.00:0.00 / mixed_ref=1 / me_range=16 / chroma_me=1 / trellis=1 / 8x8dct=1 / cqm=0 / deadzone=21,11 / fast_pskip=1 / chroma_qp_offset=-2 / threads=25 / lookahead_threads=4 / sliced_threads=0 / nr=0 / decimate=1 / interlaced=0 / bluray_compat=0 / constrained_intra=0 / bframes=3 / b_pyramid=2 / b_adapt=1 / b_bias=0 / direct=1 / weightb=1 / open_gop=0 / weightp=2 / keyint=250 / keyint_min=25 / scenecut=40 / intra_refresh=0 / rc_lookahead=40 / rc=2pass / mbtree=1 / bitrate=2890 / ratetol=1.0 / qcomp=0.60 / qpmin=0 / qpmax=69 / qpstep=4 / cplxblur=20.0 / qblur=0.5 / ip_ratio=1.40 / aq=1:1.00
Language                    : Telugu
Default                     : Yes
Forced                      : No

Audio
ID                          : 2
Format                      : AC-3
Format/Info                 : Audio Coding 3
Format settings, Endianness : Big
Codec ID                    : A_AC3
Duration                    : 1 h 54 min
Bit rate mode               : Constant
Bit rate                    : 160 kb/s
Channel(s)                  : 6 channels
Channel positions           : Front: L C R, Side: L R, LFE
Sampling rate               : 44.1 kHz
Frame rate                  : 28.711 FPS (1536 SPF)
Bit depth                   : 16 bits
Compression mode            : Lossy
Stream size                 : 131 MiB (5%)
Language                    : Telugu
Service kind                : Complete Main
Default                     : Yes
Forced                      : No



SINGLE DIRECT FAST LINKS

Code:
http://www.heroupload.com/269f6fc4e53c9528/Shamantakamani.2017.Telugu.HDTV-Rip.1080p.x264.DD5.-TMV.mkv
700MB LINKS


Code:
http://www.heroupload.com/e9398b767b94a637/Shamantakamani.2017.Telugu.HDTV-Rip.1080p.x264.DD5.-TMV.part1.rar
http://www.heroupload.com/6eba33b5f9c0d4c8/Shamantakamani.2017.Telugu.HDTV-Rip.1080p.x264.DD5.-TMV.part2.rar
http://www.heroupload.com/ff240e2b91ae778e/Shamantakamani.2017.Telugu.HDTV-Rip.1080p.x264.DD5.-TMV.part3.rar
http://www.heroupload.com/0959c098b8e66f25/Shamantakamani.2017.Telugu.HDTV-Rip.1080p.x264.DD5.-TMV.part4.rar