Code:
General
Format                      : Matroska
Format version              : Version 4 / Version 2
File size                   : 6.68 GiB
Duration                    : 2 h 2 min
Overall bit rate            : 7 811 kb/s
Encoded date                : UTC 2017-11-10 18:37:35
Writing application         : mkvmerge v17.0.0 ('Be Ur Friend') 64-bit
Writing library             : libebml v1.3.5 + libmatroska v1.4.8

Video
ID                          : 1
Format                      : MPEG-4 Visual
Format profile              : Simple@L1
Format settings, BVOP       : No
Format settings, QPel       : No
Format settings, GMC        : No warppoints
Format settings, Matrix     : Default (H.263)
Codec ID                    : V_MS/VFW/FOURCC / DIVX
Codec ID/Info               : Project Mayo
Codec ID/Hint               : DivX 4
Duration                    : 2 h 2 min
Bit rate                    : 7 685 kb/s
Width                       : 1 920 pixels
Height                      : 816 pixels
Display aspect ratio        : 2.35:1
Frame rate mode             : Constant
Frame rate                  : 25.000 FPS
Color space                 : YUV
Chroma subsampling          : 4:2:0
Bit depth                   : 8 bits
Scan type                   : Progressive
Compression mode            : Lossy
Bits/(Pixel*Frame)          : 0.196
Stream size                 : 6.57 GiB (98%)
Writing library             : Lavc55.52.102
Language                    : English
Default                     : Yes
Forced                      : No

Audio
ID                          : 2
Format                      : AAC
Format/Info                 : Advanced Audio Codec
Format profile              : LC
Codec ID                    : A_AAC
Duration                    : 2 h 2 min
Bit rate                    : 123 kb/s
Channel(s)                  : 2 channels
Channel positions           : Front: L R
Sampling rate               : 48.0 kHz
Frame rate                  : 46.875 FPS (1024 SPF)
Compression mode            : Lossy
Stream size                 : 107 MiB (2%)
Language                    : English
Default                     : Yes
Forced                      : No

Text
ID                          : 3
Format                      : UTF-8
Codec ID                    : S_TEXT/UTF8
Codec ID/Info               : UTF-8 Plain Text
Duration                    : 1 h 52 min
Bit rate                    : 54 b/s
Count of elements           : 1223
Stream size                 : 45.1 KiB (0%)
Title                       : =TeamSunny=
Language                    : English
Default                     : Yes
Forced                      : No


SINGLE DIRECT FAST LINKS

Code:
http://www.heroupload.com/32f8d27b8e6deef0/Raju.Gaari.Gadhi.2017.Telugu.1080p.UnTouched.WEBHD.AAC.ESubs-TeamSunny.mkv
1GB LINKS



Code:
http://www.heroupload.com/7024bc817d7a043d/Raju.Gaari.Gadhi.2017.Telugu.1080p.UnTouched.WEBHD.AAC.ESubs-TeamSunny.part1.rar
http://www.heroupload.com/e29d0f89562a5fb4/Raju.Gaari.Gadhi.2017.Telugu.1080p.UnTouched.WEBHD.AAC.ESubs-TeamSunny.part2.rar
http://www.heroupload.com/591177dd71da5137/Raju.Gaari.Gadhi.2017.Telugu.1080p.UnTouched.WEBHD.AAC.ESubs-TeamSunny.part3.rar
http://www.heroupload.com/dc4eb6fb0574b1f1/Raju.Gaari.Gadhi.2017.Telugu.1080p.UnTouched.WEBHD.AAC.ESubs-TeamSunny.part4.rar
http://www.heroupload.com/8b5184f532ab5b6e/Raju.Gaari.Gadhi.2017.Telugu.1080p.UnTouched.WEBHD.AAC.ESubs-TeamSunny.part5.rar
http://www.heroupload.com/6889a28f5ee815f2/Raju.Gaari.Gadhi.2017.Telugu.1080p.UnTouched.WEBHD.AAC.ESubs-TeamSunny.part6.rar
http://www.heroupload.com/a62e680bb41f838e/Raju.Gaari.Gadhi.2017.Telugu.1080p.UnTouched.WEBHD.AAC.ESubs-TeamSunny.part7.rar