Code:
General
Format                      : MPEG-4
Format profile              : Base Media
Codec ID                    : isom (isom/iso2/avc1/mp41)
File size                   : 5.47 GiB
Duration                    : 2 h 30 min
Overall bit rate            : 5 190 kb/s
Writing application         : Lavf57.71.100

Video
ID                          : 1
Format                      : AVC
Format/Info                 : Advanced Video Codec
Format profile              : Main@L3.1
Format settings, CABAC      : Yes
Format settings, RefFrames  : 3 frames
Codec ID                    : avc1
Codec ID/Info               : Advanced Video Coding
Duration                    : 2 h 30 min
Bit rate                    : 4 964 kb/s
Width                       : 1 280 pixels
Height                      : 720 pixels
Display aspect ratio        : 16:9
Frame rate mode             : Variable
Frame rate                  : 25.000 FPS
Minimum frame rate          : 6.250 FPS
Maximum frame rate          : 25.000 FPS
Color space                 : YUV
Chroma subsampling          : 4:2:0
Bit depth                   : 8 bits
Scan type                   : Progressive
Bits/(Pixel*Frame)          : 0.215
Stream size                 : 5.23 GiB (96%)

Audio
ID                          : 2
Format                      : AAC
Format/Info                 : Advanced Audio Codec
Format profile              : LC
Codec ID                    : 40
Duration                    : 2 h 30 min
Bit rate mode               : Constant
Bit rate                    : 216 kb/s
Channel(s)                  : 2 channels
Channel positions           : Front: L R
Sampling rate               : 48.0 kHz
Frame rate                  : 46.875 FPS (1024 SPF)
Compression mode            : Lossy
Stream size                 : 233 MiB (4%)
Language                    : unk
Default                     : Yes
Alternate group             : 1




SINGLE DIRECT FAST LINKS

Code:
http://www.heroupload.com/723605c391b8a2c8/Solo.2017.Malayalam.WEB-HD.720p.UNTOUCHED.AVC.AAC-WarezRock.mp4
1GB LINKS


Code:
http://www.heroupload.com/2f008e3c890a6a05/Solo.2017.Malayalam.WEB-HD.720p.UNTOUCHED.AVC.AAC-WarezRock.part1.rar
http://www.heroupload.com/1b6c93036e15b7ca/Solo.2017.Malayalam.WEB-HD.720p.UNTOUCHED.AVC.AAC-WarezRock.part2.rar
http://www.heroupload.com/5d44bfa9fb805391/Solo.2017.Malayalam.WEB-HD.720p.UNTOUCHED.AVC.AAC-WarezRock.part3.rar
http://www.heroupload.com/c6be9dc749b31594/Solo.2017.Malayalam.WEB-HD.720p.UNTOUCHED.AVC.AAC-WarezRock.part4.rar
http://www.heroupload.com/b960f92f48ad84a3/Solo.2017.Malayalam.WEB-HD.720p.UNTOUCHED.AVC.AAC-WarezRock.part5.rar
http://www.heroupload.com/f5e9351f2f172859/Solo.2017.Malayalam.WEB-HD.720p.UNTOUCHED.AVC.AAC-WarezRock.part6.rar