Code:
General
Format                      : MPEG-4
Format profile              : Base Media / Version 2
Codec ID                    : mp42 (isom/mp42)
File size                   : 1.15 GiB
Duration                    : 2 h 2 min
Overall bit rate mode       : Variable
Overall bit rate            : 1 345 kb/s
Encoded date                : UTC 2017-11-10 04:27:29
Tagged date                 : UTC 2017-11-10 04:27:29
gsst                        : 0
gstd                        : 7340871

Video
ID                          : 1
Format                      : AVC
Format/Info                 : Advanced Video Codec
Format profile              : High@L3.1
Format settings, CABAC      : Yes
Format settings, RefFrames  : 1 frame
Codec ID                    : avc1
Codec ID/Info               : Advanced Video Coding
Duration                    : 2 h 2 min
Bit rate                    : 1 151 kb/s
Maximum bit rate            : 8 296 kb/s
Width                       : 1 280 pixels
Height                      : 544 pixels
Display aspect ratio        : 2.35:1
Frame rate mode             : Constant
Frame rate                  : 23.904 FPS
Color space                 : YUV
Chroma subsampling          : 4:2:0
Bit depth                   : 8 bits
Scan type                   : Progressive
Bits/(Pixel*Frame)          : 0.069
Stream size                 : 1 007 MiB (86%)
Tagged date                 : UTC 2017-11-10 04:27:48
Color range                 : Limited
Color primaries             : BT.709
Transfer characteristics    : BT.709
Matrix coefficients         : BT.709

Audio
ID                          : 2
Format                      : AAC
Format/Info                 : Advanced Audio Codec
Format profile              : LC
Codec ID                    : 40
Duration                    : 2 h 2 min
Bit rate mode               : Variable
Bit rate                    : 192 kb/s
Maximum bit rate            : 202 kb/s
Channel(s)                  : 2 channels
Channel positions           : Front: L R
Sampling rate               : 44.1 kHz
Frame rate                  : 43.066 FPS (1024 SPF)
Compression mode            : Lossy
Stream size                 : 168 MiB (14%)
Title                       : IsoMedia File Produced by Google, 5-11-2011
Language                    : English
Encoded date                : UTC 2017-11-10 04:27:41
Tagged date                 : UTC 2017-11-10 04:27:48






SINGLE DIRECT FAST LINKS

Code:
http://www.heroupload.com/64f426cbabd942c6/Raju.Gari.Gadhi.2.2017.Telugu.HDRip.720p.AVC.AAC-TMV.mp4
Code:
http://filefloater.com/9ba/Raju.Gari.Gadhi.2.2017.Telugu.HDRip.720p.AVC.AAC-TMV.mp4