Code:
General
Complete name                            :Durga Sohay (2017) 1080p Untouched WEBHD AVC AAC [DDR].mp4
Format                                   : MPEG-4
Format profile                           : Base Media
Codec ID                                 : isom (isom/iso2/avc1/mp41)
File size                                : 4.11 GiB
Duration                                 : 1 h 35 min
Overall bit rate mode                    : Variable
Overall bit rate                         : 6 132 kb/s
Writing application                      : Lavf56.15.102

Video
ID                                       : 1
Format                                   : AVC
Format/Info                              : Advanced Video Codec
Format profile                           : High@L4.1
Format settings, CABAC                   : Yes
Format settings, ReFrames                : 1 frame
Format settings, GOP                     : M=1, N=25
Codec ID                                 : avc1
Codec ID/Info                            : Advanced Video Coding
Duration                                 : 1 h 35 min
Bit rate mode                            : Constant
Bit rate                                 : 6 000 kb/s
Width                                    : 1 920 pixels
Height                                   : 1 080 pixels
Display aspect ratio                     : 16:9
Frame rate mode                          : Constant
Frame rate                               : 25.000 FPS
Color space                              : YUV
Chroma subsampling                       : 4:2:0
Bit depth                                : 8 bits
Scan type                                : Progressive
Bits/(Pixel*Frame)                       : 0.116
Stream size                              : 4.02 GiB (98%)

Audio
ID                                       : 2
Format                                   : AAC
Format/Info                              : Advanced Audio Codec
Format profile                           : LC
Codec ID                                 : 40
Duration                                 : 1 h 35 min
Bit rate mode                            : Variable
Bit rate                                 : 125 kb/s
Maximum bit rate                         : 129 kb/s
Channel(s)                               : 2 channels
Channel positions                        : Front: L R
Sampling rate                            : 48.0 kHz
Frame rate                               : 46.875 FPS (1024 spf)
Compression mode                         : Lossy
Stream size                              : 86.1 MiB (2%)
Default                                  : Yes
Alternate group                          : 1




SINGLE DIRECT FAST LINKS


Code:
http://www.heroupload.com/f900270674cd922a/Durga.Sohay.2017.1080p.Untouched.WEBHD.AVC.AAC-DDR.mp4
1GB LINKS

Code:
http://www.heroupload.com/b753b55bd6320949/Durga.Sohay.2017.1080p.Untouched.WEBHD.AVC.AAC-DDR.part1.rar
http://www.heroupload.com/ffc1286428cbc450/Durga.Sohay.2017.1080p.Untouched.WEBHD.AVC.AAC-DDR.part2.rar
http://www.heroupload.com/4966e13238de00bd/Durga.Sohay.2017.1080p.Untouched.WEBHD.AVC.AAC-DDR.part3.rar
http://www.heroupload.com/02d83df5b0036e3b/Durga.Sohay.2017.1080p.Untouched.WEBHD.AVC.AAC-DDR.part4.rar
http://www.heroupload.com/f58286263b6069c4/Durga.Sohay.2017.1080p.Untouched.WEBHD.AVC.AAC-DDR.part5.rar
http://www.heroupload.com/f679104127b98b26/Durga.Sohay.2017.1080p.Untouched.WEBHD.AVC.AAC-DDR.srt