Code:
General
Format                      : Matroska
Format version              : Version 4 / Version 2
File size                   : 3.00 GiB
Duration                    : 2 h 1 min
Overall bit rate            : 3 540 kb/s
Encoded date                : UTC 2017-10-15 17:59:55
Writing application         : mkvmerge v7.0.0 ('Where We Going') 32bit built on Jun  9 2014 15:08:34
Writing library             : libebml v1.3.0 + libmatroska v1.4.1

Video
ID                          : 1
Format                      : AVC
Format/Info                 : Advanced Video Codec
Format profile              : High@L4
Format settings, CABAC      : Yes
Format settings, RefFrames  : 2 frames
Codec ID                    : V_MPEG4/ISO/AVC
Duration                    : 2 h 1 min
Bit rate                    : 3 378 kb/s
Width                       : 1 920 pixels
Height                      : 1 080 pixels
Display aspect ratio        : 16:9
Frame rate mode             : Constant
Frame rate                  : 25.000 FPS
Color space                 : YUV
Chroma subsampling          : 4:2:0
Bit depth                   : 8 bits
Scan type                   : Progressive
Bits/(Pixel*Frame)          : 0.065
Stream size                 : 2.86 GiB (95%)
Language                    : Hindi
Default                     : Yes
Forced                      : No
Color range                 : Limited
Color primaries             : BT.709
Transfer characteristics    : BT.709
Matrix coefficients         : BT.709

Audio
ID                          : 2
Format                      : AC-3
Format/Info                 : Audio Coding 3
Format settings, Endianness : Big
Codec ID                    : A_AC3
Duration                    : 2 h 1 min
Bit rate mode               : Constant
Bit rate                    : 160 kb/s
Channel(s)                  : 6 channels
Channel positions           : Front: L C R, Side: L R, LFE
Sampling rate               : 44.1 kHz
Frame rate                  : 28.711 FPS (1536 SPF)
Bit depth                   : 16 bits
Compression mode            : Lossy
Stream size                 : 139 MiB (5%)
Language                    : Telugu
Service kind                : Complete Main
Default                     : Yes
Forced                      : No

Text
ID                          : 3
Format                      : UTF-8
Codec ID                    : S_TEXT/UTF8
Codec ID/Info               : UTF-8 Plain Text
Duration                    : 2 h 0 min
Bit rate                    : 65 b/s
Count of elements           : 1736
Stream size                 : 57.9 KiB (0%)
Language                    : English
Default                     : Yes
Forced                      : No



Buy Premium and Support Us.


Single Direct Fast Link
Code:
http://www.heroupload.com/9dba8e046808643a/Katamarayudu.2017.Telugu.WEB-HD.1080p.AVC.Original.Aud.5.1.ESub-TMV.mkv
Code:
http://filefloater.com/8NV/Katamarayudu.2017.Telugu.WEB-HD.1080p.AVC.Original.Aud.5.1.ESub-TMV.mkv
700MB LINKS

Code:
http://www.heroupload.com/e8012b33599ba01e/Katamarayudu.2017.Telugu.WEB-HD.1080p.AVC.Original.Aud.5.1.ESub-TMV.part1.rar
http://www.heroupload.com/16723ee785b60ce6/Katamarayudu.2017.Telugu.WEB-HD.1080p.AVC.Original.Aud.5.1.ESub-TMV.part2.rar
http://www.heroupload.com/6a48cc1e73c10b9d/Katamarayudu.2017.Telugu.WEB-HD.1080p.AVC.Original.Aud.5.1.ESub-TMV.part3.rar
http://www.heroupload.com/a200ac6dc9d35e5c/Katamarayudu.2017.Telugu.WEB-HD.1080p.AVC.Original.Aud.5.1.ESub-TMV.part4.rar
http://www.heroupload.com/5a06433a72f2588e/Katamarayudu.2017.Telugu.WEB-HD.1080p.AVC.Original.Aud.5.1.ESub-TMV.part5.rar
http://www.heroupload.com/0e81528e21a94002/Katamarayudu.2017.Telugu.WEB-HD.1080p.AVC.Original.Aud.5.1.ESub-TMV.srt
Code:
http://filefloater.com/8NW/Katamarayudu.2017.Telugu.WEB-HD.1080p.AVC.Original.Aud.5.1.ESub-TMV.part1.rar
http://filefloater.com/8NX/Katamarayudu.2017.Telugu.WEB-HD.1080p.AVC.Original.Aud.5.1.ESub-TMV.part2.rar
http://filefloater.com/8NY/Katamarayudu.2017.Telugu.WEB-HD.1080p.AVC.Original.Aud.5.1.ESub-TMV.part3.rar
http://filefloater.com/8NZ/Katamarayudu.2017.Telugu.WEB-HD.1080p.AVC.Original.Aud.5.1.ESub-TMV.part4.rar
http://filefloater.com/8O0/Katamarayudu.2017.Telugu.WEB-HD.1080p.AVC.Original.Aud.5.1.ESub-TMV.part5.rar
http://filefloater.com/8O1/Katamarayudu.2017.Telugu.WEB-HD.1080p.AVC.Original.Aud.5.1.ESub-TMV.srt