Code:
General
Format                      : MPEG-4
Format profile              : Base Media
Codec ID                    : isom (isom)
File size                   : 2.38 GiB
Duration                    : 3 h 1 min
Overall bit rate mode       : Variable
Overall bit rate            : 1 878 kb/s
Encoded date                : UTC 2017-10-12 23:46:27
Tagged date                 : UTC 2017-10-12 23:46:27

Video
ID                          : 1
Format                      : AVC
Format/Info                 : Advanced Video Codec
Format profile              : Main@L4
Format settings, CABAC      : Yes
Format settings, RefFrames  : 4 frames
Codec ID                    : avc1
Codec ID/Info               : Advanced Video Coding
Duration                    : 3 h 1 min
Bit rate                    : 1 746 kb/s
Maximum bit rate            : 8 725 kb/s
Width                       : 1 280 pixels
Height                      : 720 pixels
Display aspect ratio        : 16:9
Frame rate mode             : Variable
Frame rate                  : 20.310 FPS
Minimum frame rate          : 5.000 FPS
Maximum frame rate          : 56.604 FPS
Color space                 : YUV
Chroma subsampling          : 4:2:0
Bit depth                   : 8 bits
Scan type                   : Progressive
Bits/(Pixel*Frame)          : 0.093
Stream size                 : 2.22 GiB (93%)
Writing library             : x264 core 148 r2708 86b7198
Encoding settings           : cabac=1 / ref=2 / deblock=1:0:0 / analyse=0x1:0x111 / me=hex / subme=6 / psy=1 / psy_rd=1.00:0.00 / mixed_ref=1 / me_range=16 / chroma_me=1 / trellis=1 / 8x8dct=0 / cqm=0 / deadzone=21,11 / fast_pskip=1 / chroma_qp_offset=-2 / threads=22 / lookahead_threads=3 / sliced_threads=0 / nr=0 / decimate=1 / interlaced=0 / bluray_compat=0 / constrained_intra=0 / bframes=3 / b_pyramid=2 / b_adapt=1 / b_bias=0 / direct=1 / weightb=1 / open_gop=0 / weightp=1 / keyint=200 / keyint_min=20 / scenecut=40 / intra_refresh=0 / rc_lookahead=30 / rc=2pass / mbtree=1 / bitrate=1746 / ratetol=1.0 / qcomp=0.60 / qpmin=0 / qpmax=69 / qpstep=4 / cplxblur=20.0 / qblur=0.5 / vbv_maxrate=20000 / vbv_bufsize=25000 / nal_hrd=none / filler=0 / ip_ratio=1.40 / aq=1:1.00
Encoded date                : UTC 2017-10-12 23:23:47
Tagged date                 : UTC 2017-10-12 23:47:08
Color range                 : Limited
Color primaries             : BT.709
Transfer characteristics    : BT.709
Matrix coefficients         : BT.709

Audio
ID                          : 2
Format                      : AC-3
Format/Info                 : Audio Coding 3
Format settings, Endianness : Big
Codec ID                    : ac-3
Duration                    : 3 h 1 min
Bit rate mode               : Constant
Bit rate                    : 128 kb/s
Maximum bit rate            : 134 kb/s
Channel(s)                  : 6 channels
Channel positions           : Front: L C R, Side: L R, LFE
Sampling rate               : 44.1 kHz
Frame rate                  : 28.711 FPS (1536 SPF)
Bit depth                   : 16 bits
Compression mode            : Lossy
Stream size                 : 166 MiB (7%)
Language                    : Telugu
Service kind                : Complete Main
Encoded date                : UTC 2017-10-12 23:47:06
Tagged date                 : UTC 2017-10-12 23:47:08

Text
ID                          : 3
Format                      : Timed Text
Codec ID                    : tx3g
Duration                    : 3 h 1 min
Bit rate mode               : Variable
Bit rate                    : 65 b/s
Stream size                 : 86.1 KiB (0%)
Forced                      : No
Encoded date                : UTC 2017-10-12 23:47:08
Tagged date                 : UTC 2017-10-12 23:47:08



Buy Premium and Support us.


SINGLE DIRECT FAST LINKS

Code:
http://www.heroupload.com/ceacba72c2bb5476/Arjun.Reddy.2017.Telugu.WEB-HD.720p.AVC.DD5.1.ESub-TMV.mp4
Code:
http://filefloater.com/3y0/Arjun.Reddy.2017.Telugu.WEB-HD.720p.AVC.DD5.1.ESub-TMV.mp4
700MB LINKS
Code:
http://www.heroupload.com/78eef7b1e7ad4758/Arjun.Reddy.2017.Telugu.WEB-HD.720p.AVC.DD5.1.ESub-TMV.part1.rar
http://www.heroupload.com/854de16abfacc77c/Arjun.Reddy.2017.Telugu.WEB-HD.720p.AVC.DD5.1.ESub-TMV.part2.rar
http://www.heroupload.com/f3491e3be8951ea7/Arjun.Reddy.2017.Telugu.WEB-HD.720p.AVC.DD5.1.ESub-TMV.part3.rar
http://www.heroupload.com/fcdb9fe1ca1e4964/Arjun.Reddy.2017.Telugu.WEB-HD.720p.AVC.DD5.1.ESub-TMV.part4.rar
http://www.heroupload.com/6edef2718e91fb4f/Arjun.Reddy.2017.Telugu.WEB-HD.720p.AVC.DD5.1.ESub-TMV.srt
Code:
http://filefloater.com/3y1/Arjun.Reddy.2017.Telugu.WEB-HD.720p.AVC.DD5.1.ESub-TMV.part1.rar
http://filefloater.com/3y2/Arjun.Reddy.2017.Telugu.WEB-HD.720p.AVC.DD5.1.ESub-TMV.part2.rar
http://filefloater.com/3y3/Arjun.Reddy.2017.Telugu.WEB-HD.720p.AVC.DD5.1.ESub-TMV.part3.rar
http://filefloater.com/3y4/Arjun.Reddy.2017.Telugu.WEB-HD.720p.AVC.DD5.1.ESub-TMV.part4.rar
http://filefloater.com/3y5/Arjun.Reddy.2017.Telugu.WEB-HD.720p.AVC.DD5.1.ESub-TMV.srt