Code:
Format                      : Matroska
Format version              : Version 4 / Version 2
File size                   : 1.45 GiB
Duration                    : 2 h 11 min
Overall bit rate            : 1 574 kb/s
Movie name                  : Bareilly Ki Barfi 2017-Hon3y


Video
ID                          : 1
Format                      : AVC
Format/Info                 : Advanced Video Codec
Format profile              : High@L4.1
Format settings, CABAC      : Yes
Format settings, ReFrames   : 8 frames
Codec ID                    : V_MPEG4/ISO/AVC
Duration                    : 2 h 11 min
Bit rate                    : 1 188 kb/s
Width                       : 720 pixels
Height                      : 304 pixels
Display aspect ratio        : 2.35:1
Frame rate mode             : Constant
Frame rate                  : 23.976 (24000/1001) FPS



Audio
ID                          : 2
Format                      : AC-3
Format/Info                 : Audio Coding 3
Format settings, Endianness : Big
Codec ID                    : A_AC3
Duration                    : 2 h 11 min
Bit rate mode               : Constant
Bit rate                    : 384 kb/s
Channel(s)                  : 6 channels
Channel positions           : Front: L C R, Side: L R, LFE
Sampling rate               : 48.0 kHz
Frame rate                  : 31.250 FPS (1536 spf)
Bit depth                   : 16 bits
Compression mode            : Lossy
Delay relative to video     : 15 ms
Stream size                 : 361 MiB (24%)
Language                    : Hindi
Service kind                : Complete Main
Default                     : Yes
Forced                      : No

Text
ID                          : 3
Format                      : UTF-8
Codec ID                    : S_TEXT/UTF8
Codec ID/Info               : UTF-8 Plain Text
Duration                    : 1 h 50 min
Bit rate                    : 74 b/s
Count of elements           : 1916
Stream size                 : 60.5 KiB (0%)
Language                    : English
Default                     : Yes
Forced                      : No













Buy Premium and Support us.

SINGLE DIRECT FAST LINKS

Code:
http://www.heroupload.com/ae2ea34e0082470f/Bareilly.Ki.Barfi.2017.Hindi.DvDRip.x264.AC3.5.1.ESub-HHD.mkv
Code:
http://filefloater.com/3yl/Bareilly.Ki.Barfi.2017.Hindi.DvDRip.x264.AC3.5.1.ESub-HHD.mkv