Code:
Format                      : MPEG-4
Format profile              : Base Media
Codec ID                    : isom (isom/iso2/avc1/mp41)
File size                   : 2.91 GiB
Duration                    : 2 h 25 min
Overall bit rate mode       : Variable
Overall bit rate            : 2 864 kb/s
Encoded date                : UTC 2017-06-17 07:18:10
Tagged date                 : UTC 2017-06-17 07:18:10

Video
ID                          : 1
Format                      : AVC
Format/Info                 : Advanced Video Codec
Format profile              : High@L4
Format settings, CABAC      : Yes
Format settings, ReFrames   : 2 frames
Codec ID                    : avc1
Codec ID/Info               : Advanced Video Coding
Duration                    : 2 h 25 min
Bit rate                    : 2 735 kb/s
Width                       : 1 920 pixels
Height                      : 1 080 pixels
Display aspect ratio        : 16:9
Frame rate mode             : Constant
Frame rate                  : 25.000 FPS
Color space                 : YUV
Chroma subsampling          : 4:2:0
Bit depth                   : 8 bits
Scan type                   : Progressive
Bits/(Pixel*Frame)          : 0.053
Stream size                 : 2.78 GiB (96%)
Encoded date                : UTC 2017-06-17 07:18:10
Tagged date                 : UTC 2017-06-17 07:18:10
Color range                 : Limited
Color primaries             : BT.709
Transfer characteristics    : BT.709
Matrix coefficients         : BT.709

Audio
ID                          : 2
Format                      : AAC
Format/Info                 : Advanced Audio Codec
Format profile              : LC
Codec ID                    : 40
Duration                    : 2 h 25 min
Bit rate mode               : Variable
Bit rate                    : 126 kb/s
Channel(s)                  : 2 channels
Channel positions           : Front: L R
Sampling rate               : 44.1 kHz
Frame rate                  : 43.066 FPS (1024 spf)
Compression mode            : Lossy
Stream size                 : 131 MiB (4%)
Default                     : Yes
Alternate group             : 1
Encoded date                : UTC 2017-06-17 07:27:30
Tagged date                 : UTC 2017-06-17 07:27:30




SINGLE DIRECT FAST LINKS

Code:
http://www.heroupload.com/946e6b712d9f4ded/Gentleman.2016.Telugu.WEB-HD.1080p.AVC.AAC-TMV.MP4
700MB LINKS


Code:
http://www.heroupload.com/eba1efb10beaa4da/Gentleman.2016.Telugu.WEB-HD.1080p.AVC.AAC-TMV.part1.rar
http://www.heroupload.com/3cca768db0cc1228/Gentleman.2016.Telugu.WEB-HD.1080p.AVC.AAC-TMV.part2.rar
http://www.heroupload.com/210c0edce666d77a/Gentleman.2016.Telugu.WEB-HD.1080p.AVC.AAC-TMV.part3.rar
http://www.heroupload.com/7ca4348a84463499/Gentleman.2016.Telugu.WEB-HD.1080p.AVC.AAC-TMV.part4.rar
http://www.heroupload.com/eeafe8ca1c78bebb/Gentleman.2016.Telugu.WEB-HD.1080p.AVC.AAC-TMV.part5.rar