Code:
General
Format                      : MPEG-4
Format profile              : Base Media / Version 2
Codec ID                    : mp42 (isom/mp42)
File size                   : 1.28 GiB
Duration                    : 2 h 25 min
Overall bit rate mode       : Variable
Overall bit rate            : 1 266 kb/s
Encoded date                : UTC 2017-06-17 07:40:22
Tagged date                 : UTC 2017-06-17 07:40:22
gsst                        : 0
gstd                        : 8717305

Video
ID                          : 1
Format                      : AVC
Format/Info                 : Advanced Video Codec
Format profile              : Main@L3.1
Format settings, CABAC      : Yes
Format settings, ReFrames   : 3 frames
Codec ID                    : avc1
Codec ID/Info               : Advanced Video Coding
Duration                    : 2 h 25 min
Bit rate                    : 1 137 kb/s
Width                       : 1 280 pixels
Height                      : 720 pixels
Display aspect ratio        : 16:9
Frame rate mode             : Constant
Frame rate                  : 25.000 FPS
Color space                 : YUV
Chroma subsampling          : 4:2:0
Bit depth                   : 8 bits
Scan type                   : Progressive
Bits/(Pixel*Frame)          : 0.049
Stream size                 : 1.15 GiB (90%)
Title                       : ISO Media file produced by Google Inc.
Encoded date                : UTC 2017-06-17 07:40:22
Tagged date                 : UTC 2017-06-17 07:40:22
Color range                 : Limited
Color primaries             : BT.709
Transfer characteristics    : BT.709
Matrix coefficients         : BT.709

Audio
ID                          : 2
Format                      : AAC
Format/Info                 : Advanced Audio Codec
Format profile              : LC
Codec ID                    : 40
Duration                    : 2 h 25 min
Bit rate mode               : Variable
Bit rate                    : 126 kb/s
Channel(s)                  : 2 channels
Channel positions           : Front: L R
Sampling rate               : 44.1 kHz
Frame rate                  : 43.066 FPS (1024 spf)
Compression mode            : Lossy
Stream size                 : 131 MiB (10%)
Title                       : ISO Media file produced by Google Inc.
Encoded date                : UTC 2017-06-17 07:40:22
Tagged date                 : UTC 2017-06-17 07:40:22




SINGLE DIRECT FAST LINKS

Code:
http://www.heroupload.com/bdebdf922e4cbf27/Gentleman.2016.Telugu.WEB-HD.720p.AVC.AAC-TMV.MP4