Code:
General
Format                      : MPEG-4
Format profile              : Base Media
Codec ID                    : isom (isom/iso2/avc1/mp41)
File size                   : 1.75 GiB
Duration                    : 1 h 59 min
Overall bit rate            : 2 093 kb/s
Writing application         : Lavf57.41.100

Video
ID                          : 1
Format                      : AVC
Format/Info                 : Advanced Video Codec
Format profile              : Main@L3.1
Format settings, CABAC      : Yes
Format settings, ReFrames   : 4 frames
Codec ID                    : avc1
Codec ID/Info               : Advanced Video Coding
Duration                    : 1 h 59 min
Bit rate                    : 1 958 kb/s
Nominal bit rate            : 2 500 kb/s
Width                       : 1 280 pixels
Height                      : 720 pixels
Display aspect ratio        : 16:9
Frame rate mode             : Constant
Frame rate                  : 25.000 FPS
Color space                 : YUV
Chroma subsampling          : 4:2:0
Bit depth                   : 8 bits
Scan type                   : Progressive
Bits/(Pixel*Frame)          : 0.085
Stream size                 : 1.64 GiB (94%)
Writing library             : x264 core 148 r2694 3b70645
Encoding settings           : cabac=1 / ref=3 / deblock=1:0:0 / analyse=0x1:0x111 / me=hex / subme=7 / psy=1 / psy_rd=1.00:0.00 / mixed_ref=1 / me_range=16 / chroma_me=1 / trellis=1 / 8x8dct=0 / cqm=0 / deadzone=21,11 / fast_pskip=1 / chroma_qp_offset=-2 / threads=22 / lookahead_threads=3 / sliced_threads=0 / nr=0 / decimate=1 / interlaced=0 / bluray_compat=0 / constrained_intra=0 / bframes=3 / b_pyramid=2 / b_adapt=1 / b_bias=0 / direct=1 / weightb=1 / open_gop=0 / weightp=2 / keyint=50 / keyint_min=26 / scenecut=0 / intra_refresh=0 / rc_lookahead=40 / rc=cbr / mbtree=1 / bitrate=2500 / ratetol=1.0 / qcomp=0.60 / qpmin=0 / qpmax=69 / qpstep=4 / vbv_maxrate=2500 / vbv_bufsize=2500 / nal_hrd=none / filler=0 / ip_ratio=1.40 / aq=1:1.00
Tagged date                 : UTC 2017-06-14 16:51:10

Audio
ID                          : 2
Format                      : AAC
Format/Info                 : Advanced Audio Codec
Format profile              : LC
Codec ID                    : 40
Duration                    : 1 h 59 min
Source duration             : 1 h 59 min
Source_Duration_LastFrame   : -9 ms
Bit rate mode               : Constant
Bit rate                    : 132 kb/s
Channel(s)                  : 2 channels
Channel positions           : Front: L R
Sampling rate               : 44.1 kHz
Frame rate                  : 43.066 FPS (1024 spf)
Compression mode            : Lossy
Stream size                 : 112 MiB (6%)
Source stream size          : 112 MiB (6%)
Default                     : Yes
Alternate group             : 1
Tagged date                 : UTC 2017-06-14 16:51:10

Other
ID                          : 3
Type                        : Time code
Format                      : QuickTime TC
Duration                    : 1 h 59 min
Time code of first frame    : 08:53:42:21
Time code, striped          : Yes
Default                     : No
Tagged date                 : UTC 2017-06-14 16:51:10





SINGLE DIRECT FAST LINKS


Code:
http://www.heroupload.com/fa186a5f9cf339db/Metro.2017.Telugu.Original.WEB-HD.720p.AVC.AAC-TMV.mp4