Code:
General
Complete name               : Begum.Jaan.2017.1080p.WEB-DL.H263.AAC2.0.ESub-DDR.mp4
Format                      : MPEG-4
Format profile              : Base Media
Codec ID                    : isom (isom/iso2/mp41)
File size                   : 7.42 GiB
Duration                    : 2 h 6 min
Overall bit rate mode       : Variable
Overall bit rate            : 8 378 kb/s
Movie name                  : Begum Jaan (2017)
Performer                   : Action Drama
Director                    : Srijit Mukherji
Actor                       : Pallavi Sharda, Vidya Balan, Naseeruddin Shah
Screenplay by               : Srijit Mukherji, Kausar Munir, Sumair Malik
Producer                    : Mukesh Bhatt, Vishesh Bhatt
Production studio           : PLAY Entertainment
Genre                       : Action Drama
ContentType                 : Short Film
Recorded date               : 2017
Tagged date                 : UTC 2017-05-15 15:58:35
Writing application         : Lavf55.33.100
Cover                       : Yes
Lyrics                      : The story of eleven prostitutes who refuse to part ways with their brothel and each other during the partition between India and Pakistan.

Video
ID                          : 1
Format                      : MPEG-4 Visual
Format profile              : Simple@L1
Format settings, BVOP       : No
Format settings, QPel       : No
Format settings, GMC        : No warppoints
Format settings, Matrix     : Default (H.263)
Codec ID                    : 20
Duration                    : 2 h 6 min
Bit rate mode               : Variable
Bit rate                    : 8 160 kb/s
Maximum bit rate            : 186 Mb/s
Width                       : 1 920 pixels
Height                      : 1 080 pixels
Display aspect ratio        : 16:9
Frame rate mode             : Variable
Frame rate                  : 23.976 (23976/1000) FPS
Minimum frame rate          : 10.183 FPS
Maximum frame rate          : 23.980 FPS
Color space                 : YUV
Chroma subsampling          : 4:2:0
Bit depth                   : 8 bits
Scan type                   : Progressive
Compression mode            : Lossy
Bits/(Pixel*Frame)          : 0.164
Stream size                 : 7.22 GiB (97%)
Writing library             : Lavc55.52.102

Audio
ID                          : 2
Format                      : AAC
Format/Info                 : Advanced Audio Codec
Format profile              : LC
Codec ID                    : 40
Duration                    : 2 h 6 min
Duration_LastFrame          : 21 ms
Bit rate mode               : Variable
Bit rate                    : 213 kb/s
Maximum bit rate            : 315 kb/s
Channel(s)                  : 2 channels
Channel positions           : Front: L R
Sampling rate               : 48.0 kHz
Frame rate                  : 46.875 FPS (1024 spf)
Compression mode            : Lossy
Stream size                 : 193 MiB (3%)
Default                     : Yes




SINGLE DIRECT FAST LINKS

Code:
http://www.heroupload.com/666b53b80e22f01d/Begum.Jaan.2017.1080p.WEB-DL.H263.AAC2.0.ESub-DDR.mp4
1GB LINKS

Code:
http://www.heroupload.com/5534d1708c21eccd/Begum.Jaan.2017.1080p.WEB-DL.H263.AAC2.0.ESub-DDR.part1.rar
http://www.heroupload.com/2a8db4654fb162d5/Begum.Jaan.2017.1080p.WEB-DL.H263.AAC2.0.ESub-DDR.part2.rar
http://www.heroupload.com/f63c78f942a6ce45/Begum.Jaan.2017.1080p.WEB-DL.H263.AAC2.0.ESub-DDR.part3.rar
http://www.heroupload.com/7c14996171a6a5b3/Begum.Jaan.2017.1080p.WEB-DL.H263.AAC2.0.ESub-DDR.part4.rar
http://www.heroupload.com/f0f2673548cd52e9/Begum.Jaan.2017.1080p.WEB-DL.H263.AAC2.0.ESub-DDR.part5.rar
http://www.heroupload.com/42699bb8569033d2/Begum.Jaan.2017.1080p.WEB-DL.H263.AAC2.0.ESub-DDR.part6.rar
http://www.heroupload.com/79060c46b64f4c0c/Begum.Jaan.2017.1080p.WEB-DL.H263.AAC2.0.ESub-DDR.part7.rar
http://www.heroupload.com/ff30b1eb7559dbdf/Begum.Jaan.2017.1080p.WEB-DL.H263.AAC2.0.ESub-DDR.part8.rar
http://www.heroupload.com/7e9cf0f610bf22a7/Begum.Jaan.2017.1080p.WEB-DL.H263.AAC2.0.ESub-DDR.srt