Code:
Format                      : Matroska
Format version              : Version 4 / Version 2
File size                   : 2.29 GiB
Duration                    : 2 h 14 min
Overall bit rate            : 2 428 kb/s
Encoded date                : UTC 2018-08-10 11:14:06
Writing application         : mkvmerge v7.1.0 ('Good Love') 32bit built on Jul 27 2014 12:59:18
Writing library             : libebml v1.3.0 + libmatroska v1.4.1

Video
ID                          : 1
Format                      : AVC
Format/Info                 : Advanced Video Codec
Format profile              : High@L4
Format settings, CABAC      : Yes
Format settings, RefFrames  : 4 frames
Codec ID                    : V_MPEG4/ISO/AVC
Duration                    : 2 h 14 min
Bit rate                    : 2 298 kb/s
Width                       : 1 920 pixels
Height                      : 816 pixels
Display aspect ratio        : 2.35:1
Frame rate mode             : Constant
Frame rate                  : 23.976 (24000/1001) FPS
Color space                 : YUV
Chroma subsampling          : 4:2:0
Bit depth                   : 8 bits
Scan type                   : Progressive
Bits/(Pixel*Frame)          : 0.061
Stream size                 : 2.17 GiB (95%)
Writing library             : x264 core 155 r2901 7d0ff22
Encoding settings           : cabac=1 / ref=3 / deblock=1:0:0 / analyse=0x3:0x113 / me=hex / subme=7 / psy=1 / psy_rd=1.00:0.00 / mixed_ref=1 / me_range=16 / chroma_me=1 / trellis=1 / 8x8dct=1 / cqm=0 / deadzone=21,11 / fast_pskip=1 / chroma_qp_offset=-2 / threads=25 / lookahead_threads=4 / sliced_threads=0 / nr=0 / decimate=1 / interlaced=0 / bluray_compat=0 / constrained_intra=0 / bframes=3 / b_pyramid=2 / b_adapt=1 / b_bias=0 / direct=1 / weightb=1 / open_gop=0 / weightp=2 / keyint=240 / keyint_min=23 / scenecut=40 / intra_refresh=0 / rc_lookahead=40 / rc=2pass / mbtree=1 / bitrate=2298 / ratetol=1.0 / qcomp=0.60 / qpmin=0 / qpmax=69 / qpstep=4 / cplxblur=20.0 / qblur=0.5 / ip_ratio=1.40 / aq=1:1.00
Language                    : Telugu
Default                     : Yes
Forced                      : No

Audio
ID                          : 2
Format                      : MPEG Audio
Format version              : Version 1
Format profile              : Layer 3
Mode                        : Joint stereo
Mode extension              : MS Stereo
Codec ID                    : A_MPEG/L3
Codec ID/Hint               : MP3
Duration                    : 2 h 14 min
Bit rate mode               : Constant
Bit rate                    : 128 kb/s
Channel(s)                  : 2 channels
Sampling rate               : 44.1 kHz
Frame rate                  : 38.281 FPS (1152 SPF)
Compression mode            : Lossy
Stream size                 : 124 MiB (5%)
Writing library             : LAME3.98.2
Language                    : Telugu
Default                     : Yes
Forced                      : No


SINGLE DIRECT FAST LINKS
Code:
http://www.heroupload.us/93ebb764502fde32/Vishwaroopam.2.2018.Telugu.PreDVD.1080p.x264-TMV.mkv
Code:
http://filefloater.com/U8m/Vishwaroopam.2.2018.Telugu.PreDVD.1080p.x264-TMV.mkv
700MB LINKS

Code:
http://www.heroupload.us/204e86599d8ff607/Vishwaroopam.2.2018.Telugu.PreDVD.1080p.x264-TMV.part1.rar
http://www.heroupload.us/a77273d936d6a18a/Vishwaroopam.2.2018.Telugu.PreDVD.1080p.x264-TMV.part2.rar
http://www.heroupload.us/32bb23a0b9ddb11d/Vishwaroopam.2.2018.Telugu.PreDVD.1080p.x264-TMV.part3.rar
http://www.heroupload.us/47a4cfefd466c968/Vishwaroopam.2.2018.Telugu.PreDVD.1080p.x264-TMV.part4.rar
Code:
http://filefloater.com/U8n/Vishwaroopam.2.2018.Telugu.PreDVD.1080p.x264-TMV.part1.rar
http://filefloater.com/U8o/Vishwaroopam.2.2018.Telugu.PreDVD.1080p.x264-TMV.part2.rar
http://filefloater.com/U8p/Vishwaroopam.2.2018.Telugu.PreDVD.1080p.x264-TMV.part3.rar
http://filefloater.com/U8q/Vishwaroopam.2.2018.Telugu.PreDVD.1080p.x264-TMV.part4.rar
Buy Premium From My Links & Support Me